Монтевидео, увидимся! / Montevideo, vidimo se! (Драган Бьелогрлич / Dragan Bjelogrlic) [2014, Сербия, спорт, драма, мелодрама, комедия, приключения, история, DVDRip] VO (ViruseProject)

 
Автор Сообщение

reversefile ®

Пол:

Стаж: 4 года 5 месяцев

Сообщений: 842

Откуда: ReverseFile.org



Награды: Нет

Торрент-статистика

Создавать темы 13-Авг-2014 01:00

[Цитировать]

Монтевидео, увидимся! / Montevideo, vidimo se!
Год выпуска: 2014
Страна: Сербия
Жанр: спорт, драма, мелодрама, комедия, приключения, история
Продолжительность: 02:26:54
Перевод: Одноголосый закадровый ViruseProject
Русские субтитры: нет
Режиссёр: Драган Бьелогрлич / Dragan Bjelogrlic
В ролях: Милош Бикович, Петар Стругар, Виктор Савич, Armand Assante, Ivan Zekic, Небойша Илич, Войин Четкович, Никола Джурицко, Srdjan Timarov, Срджан Тодорович, Драган Николич и др.
Описание: Футбольная сага 1930 года. Была продолжена в столице Уругвая, где после тяжелого путешествия через Атлантику, первая сформированная команда, Королевства Югославии была в числе участвующих в первом чемпионате мира по футболу. Команда из небольшой балканской страны, которой обеспечивают минимальные шансы на успех, жребий попадает на главного противника чемпионата, сборной Бразилии!



Закадровое озвучание: Александр Харченко
Сведение звука: viruse (Виталий Емельянов)
скачать СЕМПЛ с multi-up
Видео взято отсюда: http://torrentfilm.net/forum/viewtopic.php?t=4789686
Качество: DVDRip
Формат: AVI
Видео кодек: XviD
Аудио кодек: MP3
Видео: 640x368 (1.74:1), 25 fps, XviD MPEG-4 ~1222 kbps avg, 0.21 bit/pixel
Аудио: 48 kHz, MPEG Layer 3, 2 ch, ~192.00 kbps avg

MediaInfo

D:\ОЗВУЧКА\СМИТ\Montevideo.vidimo.se.2014.DVDRip.ViruseProject.avi
General
Complete name : D:\ОЗВУЧКА\СМИТ\Montevideo.vidimo.se.2014.DVDRip.ViruseProject.avi
Format : AVI
Format/Info : Audio Video Interleave
File size : 1.46 GiB
Duration : 2h 26mn
Overall bit rate : 1 424 Kbps
Writing application : VirtualDubMod 1.5.10.2 (build 2540/release)
Writing library : VirtualDubMod build 2540/release
Video #0
ID : 0
Format : MPEG-4 Visual
Format profile : Advanced Simple@L5
Format settings, BVOP : 1
Format settings, QPel : No
Format settings, GMC : No warppoints
Format settings, Matrix : Custom
Codec ID : XVID
Codec ID/Hint : XviD
Duration : 2h 26mn
Bit rate : 1 223 Kbps
Width : 640 pixels
Height : 368 pixels
Display aspect ratio : 1.739
Frame rate : 25.000 fps
Color space : YUV
Chroma subsampling : 4:2:0
Bit depth : 8 bits
Scan type : Progressive
Compression mode : Lossy
Bits/(Pixel*Frame) : 0.208
Stream size : 1.25 GiB (86%)
Writing library : XviD 64
Audio #1
ID : 1
Format : MPEG Audio
Format version : Version 1
Format profile : Layer 3
Mode : Joint stereo
Codec ID : 55
Codec ID/Hint : MP3
Duration : 2h 26mn
Bit rate mode : Constant
Bit rate : 192 Kbps
Channel count : 2 channels
Sampling rate : 48.0 KHz
Compression mode : Lossy
Stream size : 202 MiB (13%)
Alignment : Aligned on interleaves
Interleave, duration : 40 ms (1.00 video frame)
Interleave, preload duration : 504 ms
Language : English

Скриншоты

---->Монтевидео: Божественное видение / Montevideo, Bog te video! / VO (ViruseProject)
[Профиль] [ЛС]
Кто просматривает тему:

Форум Тема Автор Размер
BBC BBC: Кровь и золото. Становление Испании с Саймоном Себагом-Монтефиоре / Blood and Gold: The Making of Spain with Simon Sebag Montefiore [серии 1-3 из 3] (Marion Milne) [2015 г., Документал... skorpionN 5.43 GB
Путешествия и приключения Граф Монте-Кристо (Александр Дюма) [2014, Приключения, аудиокнига, MP3, 96 kbps, Доронин Максим] Magnat 1.76 GB
R.G.TorrentFilm Video Граф Монтенегро (Марина Мигунова) [2006 г., комедия, приключения, HDDVDRip (720p)] AleksSin 7.61 GB
Фильмы 2011 года Кафе "Последний шанс" / Last Chance Cafe (Хорхе Монтеси / Jorge Montesi) [2006, Канада, США, триллер, мелодрама, криминал, семейный, SATRip] MVO TorrentFilm 1.36 GB
Фильмы 2011 года Кливервилль / Cleaverville (Хорхе Монтеси / Jorge Montesi) [2007, Канада, Криминальная драма, SATRip] MVO painkiller 1.36 GB
R.G.TorrentFilm Video Малыш / Little Boy (Алехандро Гомес Монтеверде / Alejandro Gomez Monteverde) [2015, Мексика, США, Драма, военный, HDRip] MVO (FocusStudio) Один 777 744 MB
Фильмы 2015 года Малыш / Little Boy (Алехандро Гомес Монтеверде / Alejandro Gomez Monteverde) [2015, Мексика, США, Драма, комедия, военный, BDRip] VO TorrentFilm 1.46 GB
Фильмы 2014 года Монтевидео, увидимся! / Montevideo, vidimo se! (Драган Бьелогрлич / Dragan Bjelogrlic) [2014, Сербия, комедия, приключения, спорт, DVDRip] + Sub Rus reversefile 1.46 GB
Показать сообщения:    

Текущее время: Сегодня 16:42

Часовой пояс: GMT



Вы не можете начинать темы
Вы не можете отвечать на сообщения
Вы не можете редактировать свои сообщения
Вы не можете удалять свои сообщения
Вы не можете голосовать в опросах
Вы не можете прикреплять файлы к сообщениям
Вы не можете скачивать файлы