Монтевидео: Божественное видение / Montevideo, Bog te video! (Драган Бьелогрлич / Dragan Bjelogrlic) [2010, Сербия, спорт, драма, мелодрама, комедия, приключения, история, DVDRip] VO (ViruseProject)

 
Автор Сообщение

reversefile ®

Пол:

Стаж: 4 года 5 месяцев

Сообщений: 842

Откуда: ReverseFile.org



Награды: Нет

Торрент-статистика

Создавать темы 13-Авг-2014 10:05

[Цитировать]

Монтевидео: Божественное видение / Montevideo, Bog te video!
Год выпуска: 2010
Страна: Сербия
Жанр: спорт, драма, мелодрама, комедия, приключения, история
Продолжительность: 02:19:35
Перевод: Одноголосый закадровый ViruseProject
Русские субтитры: нет
Режиссёр: Драган Бьелогрлич / Dragan Bjelogrlic
В ролях: Милош Бикович, Петар Стругар, Нина Янкович, Данина Йефтич, Войин Четкович, Виктор Савич, Никола Джурицко, Небойша Илич, Милутин Караджич, Бранимир Брстина и др.
Описание: Югославия, 1930 год. Тирке – молодой парень, обожающий футбол, но на футболе не заработаешь. В национальную футбольную федерацию Югославии приходит официальное приглашение принять участие в первом чемпионате мира по футболу, который пройдет в столице Уругвая, Монтевидео. Готовить сборную к чемпионату назначен Бошко Симонович, всеобщий объект насмешек. Никто не верит, что этой сборной по силам защитить честь Югославии, и никто еще, конечно, не знает, что игроки этой сборной – Тирке, Моша, Бек, Вуядинович – станут легендами при жизни, сборная Югославии займет третье место и это станет самым громким успехом в истории югославского футбола.



Закадровое озвучание: Александр Харченко
Сведение звука: viruse (Виталий Емельянов)
скачать СЕМПЛ с multi-up
Качество: DVDRip
Формат: AVI
Видео кодек: XviD
Аудио кодек: MP3
Видео: 720x416 (1.73:1), 25 fps, XviD build 50 ~1604 kbps avg, 0.21 bit/pixel
Аудио: 48 kHz, MPEG Layer 3, 2 ch, ~192.00 kbps avg

MediaInfo

D:\ОЗВУЧКА\СМИТ\Montevideo.2010.DVDRip.ViruseProject.avi
General
Complete name : D:\ОЗВУЧКА\СМИТ\Montevideo.2010.DVDRip.ViruseProject.avi
Format : AVI
Format/Info : Audio Video Interleave
File size : 1.76 GiB
Duration : 2h 19mn
Overall bit rate : 1 806 Kbps
Writing application : VirtualDubMod 1.5.10.2 (build 2540/release)
Writing library : VirtualDubMod build 2540/release
Video #0
ID : 0
Format : MPEG-4 Visual
Format profile : Advanced Simple@L5
Format settings, BVOP : 1
Format settings, QPel : No
Format settings, GMC : No warppoints
Format settings, Matrix : Custom
Codec ID : XVID
Codec ID/Hint : XviD
Duration : 2h 19mn
Bit rate : 1 604 Kbps
Width : 720 pixels
Height : 416 pixels
Display aspect ratio : 1.731
Frame rate : 25.000 fps
Color space : YUV
Chroma subsampling : 4:2:0
Bit depth : 8 bits
Scan type : Progressive
Compression mode : Lossy
Bits/(Pixel*Frame) : 0.214
Stream size : 1.56 GiB (89%)
Writing library : XviD 1.2.1 (UTC 2008-12-04)
Audio #1
ID : 1
Format : MPEG Audio
Format version : Version 1
Format profile : Layer 3
Mode : Joint stereo
Codec ID : 55
Codec ID/Hint : MP3
Duration : 2h 19mn
Bit rate mode : Constant
Bit rate : 192 Kbps
Channel count : 2 channels
Sampling rate : 48.0 KHz
Compression mode : Lossy
Stream size : 192 MiB (11%)
Alignment : Aligned on interleaves
Interleave, duration : 40 ms (1.00 video frame)
Interleave, preload duration : 504 ms

Скриншоты

[Профиль] [ЛС]

Создавать темы 06-Авг-2015 23:18 (спустя 11 месяцев 24 дня)

Топик был перенесен из форума Фильмы до 2014 года в форум Фильмы до 2012 года
sergej644
 

Создавать темы 12-Июн-2016 07:54 (спустя 1 год 9 месяцев)

Топик был перенесен из форума Фильмы 2011 года в форум Фильмы 2010 года
Russian Mafia
 
Кто просматривает тему:

Форум Тема Автор Размер
BBC BBC: Кровь и золото. Становление Испании с Саймоном Себагом-Монтефиоре / Blood and Gold: The Making of Spain with Simon Sebag Montefiore [серии 1-3 из 3] (Marion Milne) [2015 г., Документал... skorpionN 5.43 GB
Путешествия и приключения Граф Монте-Кристо (Александр Дюма) [2014, Приключения, аудиокнига, MP3, 96 kbps, Доронин Максим] Magnat 1.76 GB
R.G.TorrentFilm Video Граф Монтенегро (Марина Мигунова) [2006 г., комедия, приключения, HDDVDRip (720p)] AleksSin 7.61 GB
Фильмы 2011 года Кафе "Последний шанс" / Last Chance Cafe (Хорхе Монтеси / Jorge Montesi) [2006, Канада, США, триллер, мелодрама, криминал, семейный, SATRip] MVO TorrentFilm 1.36 GB
Фильмы 2011 года Кливервилль / Cleaverville (Хорхе Монтеси / Jorge Montesi) [2007, Канада, Криминальная драма, SATRip] MVO painkiller 1.36 GB
R.G.TorrentFilm Video Малыш / Little Boy (Алехандро Гомес Монтеверде / Alejandro Gomez Monteverde) [2015, Мексика, США, Драма, военный, HDRip] MVO (FocusStudio) Один 777 744 MB
Фильмы 2015 года Малыш / Little Boy (Алехандро Гомес Монтеверде / Alejandro Gomez Monteverde) [2015, Мексика, США, Драма, комедия, военный, BDRip] VO TorrentFilm 1.46 GB
Фильмы 2014 года Монтевидео, увидимся! / Montevideo, vidimo se! (Драган Бьелогрлич / Dragan Bjelogrlic) [2014, Сербия, комедия, приключения, спорт, DVDRip] + Sub Rus reversefile 1.46 GB
Показать сообщения:    

Текущее время: Сегодня 00:13

Часовой пояс: GMT



Вы не можете начинать темы
Вы не можете отвечать на сообщения
Вы не можете редактировать свои сообщения
Вы не можете удалять свои сообщения
Вы не можете голосовать в опросах
Вы не можете прикреплять файлы к сообщениям
Вы не можете скачивать файлы