Монстры / Monsters (Гарет Эдвардс / Gareth Edwards) [2010, Великобритания, фантастика, триллер, драма, BDRip-AVC] Dub + Original (Eng) + Sub (Rus, Eng)

 
Автор Сообщение

TorrentFilm ®

Пол:

Стаж: 2 года

Сообщений: 7741



Награды: Нет

Торрент-статистика

Создавать темы 27-Июл-2015 00:08

[Цитировать]

Монстры
Monsters
«Now, It's Our Turn To Adapt»


Страна: Великобритания
Жанр: фантастика, триллер, драма
Год выпуска: 2010
Продолжительность: 01:33:45
Перевод: Профессиональный (полное дублирование) [Лицензия BD RUS]
Cубтитры: русские, английские, английские (SDH)
Оригинальная аудиодорожка: Английский
Режиссер: Гарет Эдвардс / Gareth Edwards
В ролях: Скут МакНэри, Уитни Эйбл, Марио Сунига Бенавидес, Аннали Джеффрис, Джастин Холл, Рики Кэттер, Пол Арчер, Керри Вальдеррама, Джонатан Уиннфорд, Стэн Вонг, Энтони Кристо, Марио Ричардсон
Описание:
Действие разворачивается спустя шесть лет после того, как спутник NASA упал где-то в Центральной Америке, превратив пол-Мексики в карантинную зону. Сюжет следует за американским журналистом, согласившимся сопровождать туриста через зараженную зону к безопасным границам США.

Релиз:
Автор рипа: Stalker oK
Сэмпл
Качество видео: BDRip-AVC [Blu-ray Remux 1080p-kinozal]
Формат видео: MKV
Видео кодек: AVC
Аудио кодек: AC3
Видео: 2434 Кбит/сек, 1100x620 (16:9), 24 кадр/сек, AVC
Аудио №1: русский, 448 Кбит/сек, 48 КГц, 16 бит, 5.1, AC3
Аудио №2: английский, 448 Кбит/сек, 48 КГц, 16 бит, 5.1, AC3
Навигация по главам: есть

MediaInfo

General
Unique ID : 224302546047829222229213103998871491161 (0xA8BF19584C7712A4917A635A79275259)
Complete name : M:\Рипы\Монстры\Monsters.2010.BDRip-AVC.Dub.2.18Gb...stalkerok.new-team.mkv
Format : Matroska
File size : 2.18 GiB
Duration : 1h 33mn
Overall bit rate : 3 332 Kbps
Movie name : Monsters (2010) (New-Team) (Rip by Stalker oK)
Encoded date : UTC 2015-07-20 16:33:23
Writing application : mkvmerge v7.9.0 ('Birds') 64bit
Writing library : libebml v1.3.1 + libmatroska v1.4.2
Video
ID : 1
Format : AVC
Format/Info : Advanced Video Codec
Format profile : High@L4.1
Format settings, CABAC : Yes
Format settings, ReFrames : 12 frames
Codec ID : V_MPEG4/ISO/AVC
Duration : 1h 33mn
Bit rate : 2 434 Kbps
Width : 1 100 pixels
Height : 620 pixels
Display aspect ratio : 16:9
Frame rate : 24.000 fps
Color space : YUV
Chroma subsampling : 4:2:0
Bit depth : 8 bits
Scan type : Progressive
Bits/(Pixel*Frame) : 0.149
Stream size : 1.55 GiB (71%)
Title : Monsters (2010) (New-Team) (Rip by Stalker oK)
Writing library : x264 core 146 r2538kMod 121396c
Encoding settings : cabac=1 / ref=12 / deblock=1:-3:-2 / analyse=0x3:0x133 / me=umh / subme=11 / psy=1 / fade_compensate=0.00 / psy_rd=1.00:0.10 / mixed_ref=1 / me_range=32 / chroma_me=1 / trellis=2 / 8x8dct=1 / cqm=0 / deadzone=21,11 / fast_pskip=0 / chroma_qp_offset=-3 / threads=12 / lookahead_threads=3 / sliced_threads=0 / nr=0 / decimate=0 / interlaced=0 / bluray_compat=0 / constrained_intra=0 / fgo=0 / bframes=13 / b_pyramid=2 / b_adapt=2 / b_bias=0 / direct=3 / weightb=1 / open_gop=0 / weightp=2 / keyint=240 / keyint_min=24 / scenecut=40 / intra_refresh=0 / rc_lookahead=60 / rc=2pass / mbtree=0 / bitrate=2434 / ratetol=1.0 / qcomp=0.70 / qpmin=0 / qpmax=69 / qpstep=4 / cplxblur=20.0 / qblur=0.5 / vbv_maxrate=50000 / vbv_bufsize=62500 / nal_hrd=none / filler=0 / ip_ratio=1.40 / pb_ratio=1.30 / aq=3:0.80
Audio #1
ID : 2
Format : AC-3
Format/Info : Audio Coding 3
Mode extension : CM (complete main)
Codec ID : A_AC3
Duration : 1h 33mn
Bit rate mode : Constant
Bit rate : 448 Kbps
Channel(s) : 6 channels
Channel positions : Front: L C R, Side: L R, LFE
Sampling rate : 48.0 KHz
Bit depth : 16 bits
Compression mode : Lossy
Stream size : 300 MiB (13%)
Language : Russian
Audio #2
ID : 3
Format : AC-3
Format/Info : Audio Coding 3
Mode extension : CM (complete main)
Codec ID : A_AC3
Duration : 1h 33mn
Bit rate mode : Constant
Bit rate : 448 Kbps
Channel(s) : 6 channels
Channel positions : Front: L C R, Side: L R, LFE
Sampling rate : 48.0 KHz
Bit depth : 16 bits
Compression mode : Lossy
Stream size : 300 MiB (13%)
Language : English
Text #1
ID : 4
Format : UTF-8
Codec ID : S_TEXT/UTF8
Codec ID/Info : UTF-8 Plain Text
Language : Russian
Text #2
ID : 5
Format : UTF-8
Codec ID : S_TEXT/UTF8
Codec ID/Info : UTF-8 Plain Text
Language : English
Text #3
ID : 6
Format : UTF-8
Codec ID : S_TEXT/UTF8
Codec ID/Info : UTF-8 Plain Text
Title : SDH
Language : English
Menu
00:00:00.000 : en:6 Years Ago
00:06:44.416 : en:Put On the Mask
00:14:47.708 : en:Unknown Dead
00:24:19.625 : en:Last Ferry
00:31:14.375 : en:Tommy
00:39:36.291 : en:Very Close
00:50:46.500 : en:Be Quiet
01:02:12.916 : en:Look At This
01:11:35.125 : en:Evacuation Route
01:17:54.083 : en:Hello 911
01:23:34.083 : en:Monsters
01:30:33.041 : en:End Credits

Скриншоты

[Профиль] [ЛС]

Создавать темы 06-Авг-2015 22:23 (спустя 10 дней)

Топик был перенесен из форума Фильмы до 2014 года в форум Фильмы до 2012 года
sergej644
 

Создавать темы 12-Июн-2016 07:55 (спустя 10 месяцев 16 дней)

Топик был перенесен из форума Фильмы 2011 года в форум Фильмы 2010 года
Russian Mafia
 
Показать сообщения:    

Текущее время: Сегодня 13:02

Часовой пояс: GMT



Вы не можете начинать темы
Вы не можете отвечать на сообщения
Вы не можете редактировать свои сообщения
Вы не можете удалять свои сообщения
Вы не можете голосовать в опросах
Вы не можете прикреплять файлы к сообщениям
Вы не можете скачивать файлы