Монстры 2: Тёмный континент / Monsters: Dark Continent (2014) HDRip | P

 
Автор Сообщение

достали все ®

Пол:

Стаж: 1 год 8 месяцев

Сообщений: 6581



Награды: 12 (Подробнее)

Mega Seeder 4 (Количество: 1) Mega Seeder 3 (Количество: 1) Mega Seeder 2 (Количество: 1)
Торрент-статистика

Создавать темы 13-Июл-2015 17:20

[Цитировать]

Информация о фильме
Название: Монстры 2: Тёмный континент
Оригинальное название: Monsters: Dark Continent
Год выхода: 2014
Жанр: фантастика, триллер, драма
Режиссер: Том Грин
В ролях: Джонни Харрис, Сэм Кили, Джозеф Демпси, Кайл Соллер, Николас Пиннок, Паркер Сойерс, Филип Ардитти, София Бутелла, Михаэла Коэл, Hassan Sha'er
О фильме: Прошло 7 лет после событий первой части, и «зараженные зоны» распространились по всему миру. Теперь человечество борется за выживание. Эмилио, молодой врач, присоединяется к спасательной операции по поиску пропавших в самом центре территории монстров. Ужас того, о чем он узнает во время экспедиции, не поддается описанию…

Выпущено: Великобритания / Between The Eyes, International Traders, Vertigo Films
Продолжительность: 01:59:03
Озвучивание: Профессиональное (многоголосое) [Официальный звук]
Файл
Формат: AVI (XviD)
Качество: HDRip
Видео: 738 kb/s, 640x272
Аудио: MP3, 128 kb/s (2 ch)
Размер: 745 MB
Скачать: Сэмпл---

Media Info

General
Complete name : C:UsersuserDesktopMonstry.2.Temnyj.kontinent.2014.P.HDRip745.avi
Format : AVI
Format/Info : Audio Video Interleave
File size : 746 MiB
Duration : 1h 59mn
Overall bit rate : 876 Kbps
Writing application : VirtualDubMod 1.5.10.2 (build 2540/release)
Writing library : VirtualDubMod build 2540/release
Video
ID : 0
Format : MPEG-4 Visual
Format profile : Advanced Simple@L5
Format settings, BVOP : 2
Format settings, QPel : No
Format settings, GMC : No warppoints
Format settings, Matrix : Default (MPEG)
Codec ID : XVID
Codec ID/Hint : XviD
Duration : 1h 59mn
Bit rate : 739 Kbps
Width : 640 pixels
Height : 272 pixels
Display aspect ratio : 2.35:1
Frame rate : 23.976 fps
Color space : YUV
Chroma subsampling : 4:2:0
Bit depth : 8 bits
Scan type : Progressive
Compression mode : Lossy
Bits/(Pixel*Frame) : 0.177
Stream size : 629 MiB (84%)
Writing library : XviD 1.2.1 (UTC 2008-12-04)
Audio
ID : 1
Format : MPEG Audio
Format version : Version 1
Format profile : Layer 3
Mode : Joint stereo
Codec ID : 55
Codec ID/Hint : MP3
Duration : 1h 58mn
Bit rate mode : Constant
Bit rate : 128 Kbps
Channel(s) : 2 channels
Sampling rate : 48.0 KHz
Compression mode : Lossy
Stream size : 109 MiB (15%)
Alignment : Aligned on interleaves
Interleave, duration : 42 ms (1.00 video frame)
Interleave, preload duration : 504 ms
--- --- -

Скриншоты

-
[Профиль] [ЛС]
Показать сообщения:    

Текущее время: Сегодня 14:28

Часовой пояс: GMT



Вы не можете начинать темы
Вы не можете отвечать на сообщения
Вы не можете редактировать свои сообщения
Вы не можете удалять свои сообщения
Вы не можете голосовать в опросах
Вы не можете прикреплять файлы к сообщениям
Вы не можете скачивать файлы