Монстры против пришельцев в 3Д / Monsters vs Aliens 3D (Роб Леттерман, Конрад Вернон / Rob Letterman, Conrad Vernon) [2009, Мультфильм, Фантастика, Комедия, BDrip-AVC] Half OverUnder / Вертикальная анаморфная стереопара

 
Автор Сообщение

BOSS ®

Пол:

Стаж: 2 года 1 месяц

Сообщений: 3718

Откуда: ODESSA



Награды: 20 (Подробнее)

Top Releaser 3 (Количество: 1) Top Seeder 2 (Количество: 1) За внесенный вклад в развитие сайта (Количество: 1)
Торрент-статистика

Создавать темы 07-Окт-2015 19:59

[Цитировать]

Монстры против пришельцевMonsters vs Aliens
Год выпуска: 2009
Страна: США (DreamWorks Animation)
Жанр: Мультфильм, Фантастика, Комедия
Продолжительность: 01:34:21
Перевод: Профессиональный (дублированный)
Русские субтитры: нет
Режиссеры: Роб Леттерман, Конрад Вернон / Rob Letterman, Conrad Vernon
Роли дублировали / Озвучивали:
Сюзан Мёрфи / Гигантика - Наталья Ионова (Глюкоза) / Reese Witherspoon
Б.О.Б. - Виктор Логинов / Seth Rogen
Доктор Таракан - Александр Ревва / Hugh Laurie
Недостающее Звено - Дмитрий Дюжев / Will Arnett
Генерал Воякер - Сергей Гармаш / Kiefer Sutherland
Галлактазар - Сергей Бурунов / Rainn Wilson
Президент Хэтэуэй - Александр Гаврилин / Stephen Colbert
Кэти - Елена Соловьева / Renée Zellweger
........
Описание: В Сюзан Мёрфи, девушку из Калифорнии, прямо в день ее свадьбы попадает метеорит, полный всякой дряни из космоса, в результате чего она вдруг начинает расти и вырастает до пятнадцати метров. Встревоженные появлением нового монстра, военные сразу берутся за дело: Сюзан отлавливают и увозят на секретную правительственную базу.
Там её переименовывают в Гигантику и запирают вместе с другими монстрами: гениальным, но насекомоголовым доктором наук Тараканом; брутальным рыбочеловеком по кличке Недостающее Звено; желеподобным и неубиваемым Б. О. Бом и стометровым Насекомозавром. Правда, их тюремное заключение длится недолго: на Землю нападает инопланетный робот, и отчаявшийся Президент, поддавшись уговорам генерала Воякера, отправляет разношерстную команду монстров на спасение планеты от неминуемой гибели.--Проверено на встроенном плейере ТВ Samsung UE-C7000 Rip by Student-ak37 aka TopGun--Качество: BDrip
Контейнер: MKV
Формат 3D: Half OverUnder / Вертикальная анаморфная стереопара
Порядок ракурсов: левый ракурс первый
Видео кодек: x264
Аудио кодек: AC3
Видео: AVC / 1920х1080p / 23,976 fps / 6186 Kbps
Аудио#1: Русский / AC3 / 48 KHz / 5.1 ch / 640 Kbps
Аудио#2: Английский / AC3 / 48 KHz / 5.1 ch / 640 Kbps
Субтитры: Отсутствуют

MediaInfo

General
UniqueID : 179583870323525218719047297093107369067 (0x871A98681AA91423834A4BBEBCAEC46B)
Complete name : F:\Downloads\MonstersVsAliens(3D)2009.halfOU.AC3(TopGun).mkv
Format : Matroska
File size : 5.02 GiB
Duration : 1h 34mn
Overall bit rate : 7 617 Kbps
Movie name : Monsters vs Aliens -3D (TopGun)
Encoded date : UTC 2011-12-28 14:09:05
Writing application : mkvmerge v3.4.0 ('Rapunzel') сборка от May 15 2010 09:38:20
Writing library : libebml v0.8.0 + libmatroska v0.9.0
Video
ID : 1
Format : AVC
Format/Info : Advanced Video Codec
Format profile : High@L4.1
Format settings, CABAC : Yes
Format settings, ReFrames : 4 frames
Codec ID : V_MPEG4/ISO/AVC
Duration : 1h 34mn
Bit rate : 6 186 Kbps
Width : 1 920 pixels
Height : 1 080 pixels
Display aspect ratio : 16:9
Frame rate : 23.976 fps
Color space : YUV
Chroma subsampling : 4:2:0
Bit depth : 8 bits
Scan type : Progressive
Bits/(Pixel*Frame) : 0.124
Stream size : 4.08 GiB (81%)
Title : BDrip by TopGun
Writing library : x264 core 116 r2074 2641b9e
Encoding settings : cabac=1 / ref=4 / deblock=1:-3:-3 / analyse=0x3:0x133 / me=umh / subme=9 / psy=1 / psy_rd=1.00:0.05 / mixed_ref=1 / me_range=16 / chroma_me=1 / trellis=2 / 8x8dct=1 / cqm=0 / deadzone=21,11 / fast_pskip=1 / chroma_qp_offset=-3 / threads=6 / sliced_threads=0 / nr=0 / decimate=1 / interlaced=0 / bluray_compat=0 / constrained_intra=0 / bframes=7 / b_pyramid=2 / b_adapt=2 / b_bias=0 / direct=3 / weightb=1 / open_gop=0 / weightp=2 / keyint=250 / keyint_min=23 / scenecut=40 / intra_refresh=0 / rc_lookahead=40 / rc=crf / mbtree=1 / crf=18.0 / qcomp=0.70 / qpmin=10 / qpmax=69 / qpstep=4 / vbv_maxrate=40000 / vbv_bufsize=30000 / crf_max=0.0 / nal_hrd=none / ip_ratio=1.40 / aq=1:0.70
Audio #1
ID : 2
Format : AC-3
Format/Info : Audio Coding 3
Mode extension : CM (complete main)
Codec ID : A_AC3
Duration : 1h 34mn
Bit rate mode : Constant
Bit rate : 640 Kbps
Channel(s) : 6 channels
Channel positions : Front: L C R, Side: L R, LFE
Sampling rate : 48.0 KHz
Bit depth : 16 bits
Compression mode : Lossy
Stream size : 432 MiB (8%)
Title : Дубляж
Language : Russian
Audio #2
ID : 3
Format : AC-3
Format/Info : Audio Coding 3
Mode extension : CM (complete main)
Codec ID : A_AC3
Duration : 1h 34mn
Bit rate mode : Constant
Bit rate : 640 Kbps
Channel(s) : 6 channels
Channel positions : Front: L C R, Side: L R, LFE
Sampling rate : 48.0 KHz
Bit depth : 16 bits
Compression mode : Lossy
Stream size : 432 MiB (8%)
Language : English
Menu
00:00:00.000 : :01
00:05:07.974 : :02
00:07:38.541 : :03
00:11:00.994 : :04
00:17:35.137 : :05
00:20:35.901 : :06
00:24:09.406 : :07
00:28:19.781 : :08
00:32:40.959 : :09
00:35:11.526 : :10
00:38:58.461 : :11
00:41:50.383 : :12
00:46:46.095 : :13
00:50:09.256 : :14
00:55:47.094 : :15
00:59:37.157 : :16
01:03:23.133 : :17
01:06:37.243 : :18
01:08:37.238 : :19
01:13:59.352 : :20
01:16:54.568 : :21
01:18:09.226 : :22
01:21:36.975 : :23
01:25:08.103 : :24

Скриншоты

Господа копипастеры, пожалуйста, уважайте труд рипперов -
не "забывайте" указывать авторство в своих релизах!
[Профиль] [ЛС]
Показать сообщения:    

Текущее время: Сегодня 12:35

Часовой пояс: GMT



Вы не можете начинать темы
Вы не можете отвечать на сообщения
Вы не можете редактировать свои сообщения
Вы не можете удалять свои сообщения
Вы не можете голосовать в опросах
Вы не можете прикреплять файлы к сообщениям
Вы не можете скачивать файлы