Монстры на каникулах 2 / Hotel Transylvania 2 (2015) BDRip 1080p | iTunes

 
Автор Сообщение

BOSS ®

Пол:

Стаж: 2 года 5 месяцев

Сообщений: 4563

Откуда: ODESSA



Награды: 20 (Подробнее)

Top Releaser 4 (Количество: 1) Top Seeder 3 (Количество: 1) Mega Seeder 4 (Количество: 1)
Торрент-статистика

Создавать темы 26-Дек-2015 08:15

[Цитировать]

Производство: США / Columbia Pictures, LStar Capital, Sony Pictures Animation
Жанр: мультфильм, фэнтези, комедия, семейный
Режиссер: Генндий Тартаковский
Продюсер: Мишель Мурдокка, Аллен Коверт, Скай Лайонс
Персонажи: Адам Сэндлер, Энди Сэмберг, Селена Гомес, Кевин Джеймс, Стив Бушеми, Дэвид Спейд, Кигэн-Майкл Ки, Эшер Блинкофф, Фрэн Дрешер, Молли Шеннон
Описание:
Граф Дракула выдает свою очаровательную дочь замуж за парня из мира людей, и у молодой «смешанной» пары рождается сын. Станет ли этот ребенок человеком или вампиром?

Рейтинг MPAA: PG - рекомендуется присутствие родителей
Дата мировой премьеры: 21 сентября 2015
Дата российской премьеры: 22 октября 2015, «WDSSPR» 3D
Дата выхода DVD релиза: 21 января 2016, «CP Дистрибуция»
Релиз от: bluebird
Продолжительность: 01:29:18
Качество: BDRip 1080p
Перевод: Профессиональный (полное дублирование) (iTunes)
Вид субтитров: Вшитые, отключаемые
Язык субтитров: Русский (Forced, Full - iTunes), Украинский (Full - iTunes), Английский (SDH, Full)
Видео: MPEG-4 AVC/H.264, 1920x1036, (1,85:1), 9416 kbps, 23.976 fps
Аудио: AC3, 6 ch, 384 kbps - Русский
Аудио: AAC, 2 ch, 160 kbps - Украинский
Аудио: DTS, 6 ch, 1509 kbps - Английский

MediaInfo:

Общее
Уникальный идентификатор : 221221598581553519744205624806328083140 (0xA66DBAE82F09704C86102E1FA431A2C4)
Полное имя : :HTL_TRNSLVN_2_2015_BDRIP_1080P.mkv
Формат : Matroska
Версия формата : Version 4 / Version 2
Размер файла : 7,13 Гбайт
Продолжительность : 1 ч. 29 м.
Общий поток : 11,4 Мбит/сек
Название фильма : HOTEL_TRANSYLVANIA_2_2015_BDRIP_1080P -BLUEBIRD
Дата кодирования : UTC 2015-12-25 22:33:49
Программа кодирования : mkvmerge v8.5.0 ('Vanishing Act') 32bit
Библиотека кодирования : libebml v1.3.1 + libmatroska v1.4.2
DURATION : 01:18:30.579000000
NUMBER_OF_FRAMES : 1075
NUMBER_OF_BYTES : 39933
_STATISTICS_WRITING_APP : mkvmerge v8.5.0 ('Vanishing Act') 32bit
_STATISTICS_WRITING_DATE_UTC : 2015-12-25 22:33:49
_STATISTICS_TAGS : BPS DURATION NUMBER_OF_FRAMES NUMBER_OF_BYTES
Видео
Идентификатор : 1
Формат : AVC
Формат/Информация : Advanced Video Codec
Профиль формата : High@L4.1
Параметр CABAC формата : Да
Параметр ReFrames формата : 4 кадра
Идентификатор кодека : V_MPEG4/ISO/AVC
Продолжительность : 1 ч. 29 м.
Ширина : 1920 пикселей
Высота : 1036 пикселей
Соотношение сторон : 1,85:1
Режим частоты кадров : Постоянный
Частота кадров : 23,976 кадра/сек
Цветовое пространство : YUV
Субдискретизация насыщенности : 4:2:0
Битовая глубина : 8 бит
Тип развёртки : Прогрессивная
Заголовок : HTL_TRNSLVN_2_2015_BDRIP_1080P -BLUEBIRD
Библиотека кодирования : x264 core 142 r2431+42 c69a006 tMod [8-bit@all X86_64]
Настройки программы : cabac=1 / ref=4 / deblock=1:-1:-1 / analyse=0x3:0x133 / me=umh / subme=11 / psy=1 / fade_compensate=0.00 / psy_rd=0.40:0.00 / mixed_ref=1 / me_range=32 / chroma_me=1 / trellis=2 / 8x8dct=1 / cqm=0 / deadzone=21,11 / fast_pskip=0 / chroma_qp_offset=-2 / threads=12 / lookahead_threads=2 / sliced_threads=0 / nr=0 / decimate=0 / interlaced=0 / bluray_compat=0 / constrained_intra=0 / fgo=0 / bframes=8 / b_pyramid=2 / b_adapt=2 / b_bias=0 / direct=3 / weightb=1 / open_gop=0 / weightp=2 / keyint=240 / keyint_min=23 / scenecut=40 / intra_refresh=0 / rc_lookahead=60 / rc=crf / mbtree=0 / crf=15.0000 / qcomp=0.60 / qpmin=0:0:0 / qpmax=69:69:69 / qpstep=4 / vbv_maxrate=40000 / vbv_bufsize=30000 / crf_max=0.0 / nal_hrd=none / filler=0 / ip_ratio=1.40 / pb_ratio=1.30 / aq=1:0.60 / aq-sensitivity=10.00 / aq-factor=1.00:1.00:1.00 / aq2=0 / aq3=0
Язык : English
Default : Да
Forced : Нет
Аудио #1
Идентификатор : 2
Формат : AC-3
Формат/Информация : Audio Coding 3
Расширение режима : CM (complete main)
Параметр Endianness формата : Big
Идентификатор кодека : A_AC3
Продолжительность : 1 ч. 29 м.
Вид битрейта : Постоянный
Битрейт : 384 Кбит/сек
Каналы : 6 каналов
Расположение каналов : Front: L C R, Side: L R, LFE
Частота : 48,0 КГц
Метод сжатия : С потерями
Задержка видео : 1 с. 45 мс.
Размер потока : 245 Мбайт (3%)
Заголовок : iTunes
Язык : Russian
Default : Да
Forced : Нет
Аудио #2
Идентификатор : 3
Формат : AAC
Формат/Информация : Advanced Audio Codec
Профиль формата : LC
Идентификатор кодека : A_AAC
Продолжительность : 1 ч. 29 м.
Каналы : 2 канала
Расположение каналов : Front: L R
Частота : 44,1 КГц
Метод сжатия : С потерями
Задержка видео : 1 с. 45 мс.
Заголовок : iTunes
Язык : Ukrainian
Default : Нет
Forced : Нет
Аудио #3
Идентификатор : 4
Формат : DTS
Формат/Информация : Digital Theater Systems
Режим : 16
Параметр Endianness формата : Big
Идентификатор кодека : A_DTS
Продолжительность : 1 ч. 29 м.
Вид битрейта : Постоянный
Битрейт : 1509 Кбит/сек
Каналы : 6 каналов
Расположение каналов : Front: L C R, Side: L R, LFE
Частота : 48,0 КГц
Битовая глубина : 16 бит
Метод сжатия : С потерями
Размер потока : 964 Мбайт (13%)
Заголовок : original
Язык : English
Default : Нет
Forced : Нет
Текст #1
Идентификатор : 5
Формат : UTF-8
Идентификатор кодека : S_TEXT/UTF8
Идентификатор кодека/Информация : UTF-8 Plain Text
Заголовок : iTunes - forced
Язык : Russian
Default : Да
Forced : Да
Текст #2
Идентификатор : 6
Формат : UTF-8
Идентификатор кодека : S_TEXT/UTF8
Идентификатор кодека/Информация : UTF-8 Plain Text
Заголовок : iTunes - full-length
Язык : Russian
Default : Нет
Forced : Нет
Текст #3
Идентификатор : 7
Формат : UTF-8
Идентификатор кодека : S_TEXT/UTF8
Идентификатор кодека/Информация : UTF-8 Plain Text
Заголовок : iTunes - full-length
Язык : Ukrainian
Default : Нет
Forced : Нет
Текст #4
Идентификатор : 8
Формат : UTF-8
Идентификатор кодека : S_TEXT/UTF8
Идентификатор кодека/Информация : UTF-8 Plain Text
Заголовок : original (SDH)
Язык : English
Default : Нет
Forced : Нет
Текст #5
Идентификатор : 9
Формат : UTF-8
Идентификатор кодека : S_TEXT/UTF8
Идентификатор кодека/Информация : UTF-8 Plain Text
Заголовок : original (full)
Язык : English
Default : Нет
Forced : Нет
Меню
00:00:00.000 : en:Chapter 01
00:05:46.471 : en:Chapter 02
00:09:17.640 : en:Chapter 03
00:13:09.705 : en:Chapter 04
00:19:29.126 : en:Chapter 05
00:22:42.569 : en:Chapter 06
00:30:05.303 : en:Chapter 07
00:36:12.712 : en:Chapter 08
00:40:00.981 : en:Chapter 09
00:45:54.376 : en:Chapter 10
00:51:22.454 : en:Chapter 11
00:56:54.911 : en:Chapter 12
01:04:01.921 : en:Chapter 13
01:08:32.817 : en:Chapter 14
01:13:29.405 : en:Chapter 15
01:18:35.877 : en:Chapter 16

Время раздачи: 24/7
[Профиль] [ЛС]
Показать сообщения:    

Текущее время: Сегодня 12:16

Часовой пояс: GMT



Вы не можете начинать темы
Вы не можете отвечать на сообщения
Вы не можете редактировать свои сообщения
Вы не можете удалять свои сообщения
Вы не можете голосовать в опросах
Вы не можете прикреплять файлы к сообщениям
Вы не можете скачивать файлы