Монстервилль / R.L. Stine\'s Monsterville: The Cabinet of Souls (Питер ДеЛуис / Peter DeLuise) [2015, США, комедия, BDRip] Dub

 
Автор Сообщение

TorrentFilm ®

Пол:

Стаж: 2 года

Сообщений: 7741



Награды: Нет

Торрент-статистика

Создавать темы 14-Ноя-2015 00:10

[Цитировать]

Монстервилль / R.L. Stine's Monsterville: The Cabinet of Souls
Страна: США
Жанр: комедия
Год выпуска: 2015
Продолжительность: 01:25:52
Перевод: Профессиональный (дублированный)
Cубтитры: нет
Режиссер: Питер ДеЛуис / Peter DeLuise
В ролях: Кэтрин МакНамара, Дав Камерон, Райан МакКэртан, Лэйн МакНил, Бриана Бакмастер, Тиффани Эспенсен, Фиона Врум, Карин Коновал, Браден Лемастерс, Шон Квон
Описание: Друзья-подростки должны противостоять заклинаниям злого волшебника, который под личной шоумена шоумен устроил целый спектакль в доме ужасов в их маленьком городке.
Сэмпл: http://multi-up.com/1075087
Качество видео: BDRip
Формат видео: AVI
Видео: 720x400 (1.80:1), 23.976 fps, XviD build 73 ~2046 kbps avg, 0.30 bit/pixel
Аудио: 48 kHz, AC3 Dolby Digital, 3/2 (L,C,R,l,r) + LFE ch, ~384 kbps

MediaInfo

Формат : AVI
Формат/Информация : Audio Video Interleave
Размер файла : 1,46 Гбайт
Продолжительность : 1 ч. 25 м.
Общий поток : 2440 Кбит/сек
Программа кодирования : VirtualDubMod 1.5.10.3 | www.virtualdub-fr.org || (build 2550/release)
Библиотека кодирования : VirtualDubMod build 2550/release
Видео
Идентификатор : 0
Формат : MPEG-4 Visual
Профиль формата : Advanced Simple@L5
Параметр BVOP формата : 1
Параметр QPel формата : Нет
Параметр GMC формата : Без точки перехода
Параметр матрицы формата : Выборочная
Идентификатор кодека : XVID
Идентификатор кодека/Подсказка : XviD
Продолжительность : 1 ч. 25 м.
Битрейт : 2046 Кбит/сек
Ширина : 720 пикселей
Высота : 400 пикселей
Соотношение сторон : 16:9
Частота кадров : 23,976 кадра/сек
Цветовое пространство : YUV
Субдискретизация насыщенности : 4:2:0
Битовая глубина : 8 бит
Тип развёртки : Прогрессивная
Метод сжатия : С потерями
Бит/(Пиксели*Кадры) : 0.296
Размер потока : 1,23 Гбайт (84%)
Библиотека кодирования : XviD 73
Аудио
Идентификатор : 1
Формат : AC-3
Формат/Информация : Audio Coding 3
Расширение режима : CM (complete main)
Параметр Endianness формата : Big
Идентификатор кодека : 2000
Продолжительность : 1 ч. 25 м.
Вид битрейта : Постоянный
Битрейт : 384 Кбит/сек
Каналы : 6 каналов
Расположение каналов : Front: L C R, Side: L R, LFE
Частота : 48,0 КГц
Битовая глубина : 16 бит
Метод сжатия : С потерями
Размер потока : 236 Мбайт (16%)
Выравнивание : Разделение по промежуткам
Продолжительность промежутка : 42 мс. (1,00 видеокадр)
Время предзагрузки промежутка : 500 мс.

Скриншоты

[Профиль] [ЛС]
Показать сообщения:    

Текущее время: Сегодня 01:29

Часовой пояс: GMT



Вы не можете начинать темы
Вы не можете отвечать на сообщения
Вы не можете редактировать свои сообщения
Вы не можете удалять свои сообщения
Вы не можете голосовать в опросах
Вы не можете прикреплять файлы к сообщениям
Вы не можете скачивать файлы