Монстервилль / R.L. Stine\'s Monsterville: The Cabinet of Souls (Питер ДеЛуис / Peter DeLuise) [2015, США, комедия, BDRip-AVC] Dub + Sub (Rus, Eng)

 
Автор Сообщение

TorrentFilm ®

Пол:

Стаж: 2 года

Сообщений: 7741



Награды: Нет

Торрент-статистика

Создавать темы 09-Ноя-2015 00:07

[Цитировать]

Монстервилль
R.L. Stine's Monsterville: The Cabinet of Souls


Страна: США
Жанр: комедия
Год выпуска: 2015
Продолжительность: 01:25:52
Перевод: Профессиональный (полное дублирование) [Лицензия BD CEE]
Субтитры: русские (forced, full), английские
Оригинальная аудиодорожка: нет
Режиссер: Питер ДеЛуис / Peter DeLuise
В ролях: Кэтрин МакНамара, Дав Камерон, Райан МакКэртан, Лэйн МакНил, Бриана Бакмастер, Тиффани Эспенсен, Фиона Врум, Карин Коновал, Браден Лемастерс, Шон Квон, Кэйси Дюбуа, Коннор Стэнхоуп
Описание:
Друзья-подростки должны противостоять заклинаниям злого волшебника шоумена, который устроил целый спектакль в доме ужасов в их маленьком городке.

Релиз:
Автор рипа: Stalker oK
Сэмпл
Качество видео: BDRip-AVC [Blu-ray 1080p HDCLUB]
Формат видео: MKV
Видео кодек: AVC
Аудио кодек: AC3
Видео: 1990 Кбит/сек, 960x540 (16:9), 23,976 кадр/сек, AVC
Аудио: русский, 448 Кбит/сек, 48 КГц, 16 бит, 5.1, AC3
Навигация по главам: есть

MediaInfo

General
Unique ID : 252241387367961400490222474451360053316 (0xBDC3EC92C5CFD9318CC5AD02AD527844)
Complete name : M:\Rips\Monsterville\R.L.Stines.Monsterville.The.Cabinet.of.Souls.2015.BDRip-AVC.Dub.1.45Gb...stalkerok.new-team.mkv
Format : Matroska
File size : 1.46 GiB
Duration : 1h 25mn
Overall bit rate : 2 440 Kbps
Movie name : R.L. Stine's Monsterville: The Cabinet of Souls (2015) (New-Team) (Rip by Stalker oK)
Encoded date : UTC 2015-11-05 18:54:14
Writing application : mkvmerge v7.9.0 ('Birds') 64bit
Writing library : libebml v1.3.1 + libmatroska v1.4.2
Video
ID : 1
Format : AVC
Format/Info : Advanced Video Codec
Format profile : High@L4.1
Format settings, CABAC : Yes
Format settings, ReFrames : 12 frames
Codec ID : V_MPEG4/ISO/AVC
Duration : 1h 25mn
Bit rate : 1 990 Kbps
Width : 960 pixels
Height : 540 pixels
Display aspect ratio : 16:9
Frame rate : 23.976 fps
Color space : YUV
Chroma subsampling : 4:2:0
Bit depth : 8 bits
Scan type : Progressive
Bits/(Pixel*Frame) : 0.160
Stream size : 1.17 GiB (80%)
Title : R.L. Stine's Monsterville: The Cabinet of Souls (2015) (New-Team) (Rip by Stalker oK)
Writing library : x264 core 146 r2538kMod 121396c
Encoding settings : cabac=1 / ref=12 / deblock=1:-3:-3 / analyse=0x3:0x133 / me=umh / subme=11 / psy=1 / fade_compensate=0.00 / psy_rd=1.00:0.12 / mixed_ref=1 / me_range=48 / chroma_me=1 / trellis=2 / 8x8dct=1 / cqm=0 / deadzone=21,11 / fast_pskip=0 / chroma_qp_offset=-3 / threads=12 / lookahead_threads=3 / sliced_threads=0 / nr=0 / decimate=0 / interlaced=0 / bluray_compat=0 / constrained_intra=0 / fgo=0 / bframes=14 / b_pyramid=2 / b_adapt=2 / b_bias=0 / direct=3 / weightb=1 / open_gop=0 / weightp=2 / keyint=240 / keyint_min=23 / scenecut=40 / intra_refresh=0 / rc_lookahead=60 / rc=2pass / mbtree=0 / bitrate=1990 / ratetol=1.0 / qcomp=0.70 / qpmin=0 / qpmax=69 / qpstep=4 / cplxblur=20.0 / qblur=0.5 / vbv_maxrate=50000 / vbv_bufsize=62500 / nal_hrd=none / filler=0 / ip_ratio=1.40 / pb_ratio=1.30 / aq=3:0.85
Audio
ID : 2
Format : AC-3
Format/Info : Audio Coding 3
Mode extension : CM (complete main)
Codec ID : A_AC3
Duration : 1h 25mn
Bit rate mode : Constant
Bit rate : 448 Kbps
Channel(s) : 6 channels
Channel positions : Front: L C R, Side: L R, LFE
Sampling rate : 48.0 KHz
Bit depth : 16 bits
Compression mode : Lossy
Stream size : 275 MiB (18%)
Language : Russian
Text #1
ID : 3
Format : UTF-8
Codec ID : S_TEXT/UTF8
Codec ID/Info : UTF-8 Plain Text
Title : forced
Language : Russian
Text #2
ID : 4
Format : UTF-8
Codec ID : S_TEXT/UTF8
Codec ID/Info : UTF-8 Plain Text
Language : Russian
Text #3
ID : 5
Format : UTF-8
Codec ID : S_TEXT/UTF8
Codec ID/Info : UTF-8 Plain Text
Language : English
Menu
00:00:00.000 : en:Chapter 1
00:01:52.112 : en:Chapter 2
00:06:07.450 : en:Chapter 3
00:12:19.739 : en:Chapter 4
00:16:38.497 : en:Chapter 5
00:21:20.612 : en:Chapter 6
00:27:48.917 : en:Chapter 7
00:30:48.304 : en:Chapter 8
00:34:03.541 : en:Chapter 9
00:38:59.712 : en:Chapter 10
00:45:17.005 : en:Chapter 11
00:50:32.487 : en:Chapter 12
00:53:50.894 : en:Chapter 13
00:58:00.393 : en:Chapter 14
01:01:09.707 : en:Chapter 15
01:06:32.363 : en:Chapter 16
01:10:13.459 : en:Chapter 17
01:14:05.816 : en:Chapter 18
01:18:10.435 : en:Chapter 19
01:23:50.817 : en:Chapter 20

Скриншоты

[Профиль] [ЛС]
Показать сообщения:    

Текущее время: Сегодня 14:29

Часовой пояс: GMT



Вы не можете начинать темы
Вы не можете отвечать на сообщения
Вы не можете редактировать свои сообщения
Вы не можете удалять свои сообщения
Вы не можете голосовать в опросах
Вы не можете прикреплять файлы к сообщениям
Вы не можете скачивать файлы