Моменты / Moment [серии 1-2 из 2] (Lyee Yeon Kyu) [2016 г., Документальный, познавательный, флора, фауна, HDTVRip-AVC 720p]

 
Автор Сообщение

skorpionN ®

Пол:

Стаж: 3 года 7 месяцев

Сообщений: 944



Награды: 4 (Подробнее)

Mega Seeder 2 (Количество: 1) Mega Seeder 1 (Количество: 1) Mega Seeder 3 (Количество: 1)
Торрент-статистика

Создавать темы 12-Янв-2018 19:50

[Цитировать]

Моменты / Moment [серии 1-2 из 2]
Год выпуска: 2016
Страна: Южная Корея, Educational Broadcasting System (EBS)
Жанр: Документальный, познавательный, флора, фауна
Продолжительность: 00:47:06+00:47:52
Перевод: Профессиональный (одноголосый), переведено SDI Media Россия, текст читает Владимир Рыбальченко
Режиссер: Ли Ён Ки / Lyee Yeon Kyu
Описание:
Тому, кто ищет вечность, нужно пройти через этот туман. Здесь вы не услышите человеческих шагов. Каждое мгновение в этих местах наполнено ВЕЧНОСТЬЮ.
Момент - это мгновение между тем, что прошло, и между тем, чему ещё только предстоит случиться. Жизнь - процесс противоречивый. Ведь она всегда заканчивается смертью. Тьма и свет, жизнь и смерть это всего лишь приходящие явления на фоне вечности. Каждый момент существования окутан тайной и проходит под влияниям сил, которые не поддаются объяснению.
Как живые существа адаптируются к моменту, требуемому временем?
Список серий:
01. Мгновения вечности / Moments of eternity
02. Мгновения между прошлым и будущим / Moments between the past and the future

Качество: HDTVRip-AVC
Формат: MKV
Видео кодек: H.264
Аудио кодек: AC3
Видео: 1280x720 29.97fps 4000 Kbps
Аудио: AC3 2ch, 48kHz, 192 kbps

Скриншоты


MediaInfo:

Format : Matroska
Format version : Version 4 / Version 2
File size : 1.38 GiB
Duration : 47 min 5 s
Overall bit rate mode : Variable
Overall bit rate : 4 191 kb/s
Encoded date : UTC 2018-01-09 21:07:34
Writing application : mkvmerge v6.9.1 ('Blue Panther') 64bit built on Apr 18 2014 18:23:38
Writing library : libebml v1.3.0 + libmatroska v1.4.1
Video
ID : 1
Format : AVC
Format/Info : Advanced Video Codec
Format profile : High@L4
Format settings, CABAC : Yes
Format settings, ReFrames : 3 frames
Codec ID : V_MPEG4/ISO/AVC
Duration : 47 min 5 s
Bit rate mode : Variable
Bit rate : 4 000 kb/s
Maximum bit rate : 8 000 kb/s
Width : 1 280 pixels
Height : 720 pixels
Display aspect ratio : 16:9
Frame rate mode : Constant
Frame rate : 29.970 (30000/1001) FPS
Standard : NTSC
Color space : YUV
Chroma subsampling : 4:2:0
Bit depth : 8 bits
Scan type : Progressive
Bits/(Pixel*Frame) : 0.145
Stream size : 1.29 GiB (93%)
Writing library : x264 core 114
Encoding settings : cabac=1 / ref=3 / deblock=1:0:0 / analyse=0x3:0x113 / me=hex / subme=7 / psy=1 / psy_rd=1.00:0.00 / mixed_ref=1 / me_range=16 / chroma_me=1 / trellis=1 / 8x8dct=1 / cqm=2 / deadzone=21,11 / fast_pskip=1 / chroma_qp_offset=-4 / threads=6 / sliced_threads=0 / slices=1 / nr=0 / decimate=1 / interlaced=0 / constrained_intra=0 / bframes=3 / b_pyramid=0 / b_adapt=1 / b_bias=0 / direct=1 / weightb=1 / open_gop=0 / weightp=2 / keyint=250 / keyint_min=25 / scenecut=40 / intra_refresh=0 / rc_lookahead=40 / rc=2pass / mbtree=1 / bitrate=4000 / ratetol=1.0 / qcomp=0.60 / qpmin=5 / qpmax=69 / qpstep=4 / cplxblur=20.0 / qblur=0.5 / vbv_maxrate=8000 / vbv_bufsize=7995 / nal_hrd=vbr / ip_ratio=1.40 / aq=1:1.00
Default : Yes
Forced : No
Color range : Limited
Color primaries : BT.709
Transfer characteristics : BT.709
Matrix coefficients : BT.709
Audio
ID : 2
Format : AC-3
Format/Info : Audio Coding 3
Mode extension : CM (complete main)
Format settings, Endianness : Big
Codec ID : A_AC3
Duration : 47 min 5 s
Bit rate mode : Constant
Bit rate : 192 kb/s
Channel(s) : 2 channels
Channel positions : Front: L R
Sampling rate : 48.0 kHz
Frame rate : 31.250 FPS (1536 spf)
Compression mode : Lossy
Stream size : 64.7 MiB (5%)
Default : Yes
Forced : No
[Профиль] [ЛС]
Кто просматривает тему:

Форум Тема Автор Размер
BBC BBC: Horizon: Рассвет во Вселенной. Момент сотворения мира / Cosmic Dawn: The Real Moment of Creation (Toby Macdonald) [2015 г., Документальный, научно-познавательный, астрономия, HDTVRip 720p] skorpionN 1.42 GB
National Geographic NG: Исследователь - Момент смерти / Explorer - Moment of death (Марк Маннуччи) [2008 г., Документальный, научно-популярный, WEB-DLRip 720p] skorpionN 1.52 GB
Фильмы (HD Rips | 720p, 1080p) Кризисный момент / Crisis Point (2012) HDTVRip 720p от MediaClub | P sergej644 2.26 GB
Фильмы 2011 года Критический момент / Quarter Life Crisis (2006) DVDRip от ExKinoRay | P sergej644 1.37 GB
Фильмы 2014 года Переломный момент / Break Point (2014) WEB-DLRip | P Swager 1.46 GB
Фильмы (HD DVD, Blu-ray и BDRemux) Сделай шаг: Лови момент / Make Your Move (2013) BDRemux 1080p от NovaLan sergej644 23.79 GB
Разная литература Фрэнк Партной | Подожди! Как отложить решение до последнего момента и… победить (2015) [FB2] достали все 1 MB
Спортивные фильмы и передачи Футбол. Лига Чемпионов 2016-17. 3-й тур. 1-й день. Лучшие моменты On-line [18.10] (2016) WEBRip 1080p достали все 3.17 GB
Показать сообщения:    

Текущее время: Сегодня 08:14

Часовой пояс: GMT



Вы не можете начинать темы
Вы не можете отвечать на сообщения
Вы не можете редактировать свои сообщения
Вы не можете удалять свои сообщения
Вы не можете голосовать в опросах
Вы не можете прикреплять файлы к сообщениям
Вы не можете скачивать файлы