Молодость / Youth (2015) DVD9 | Лицензия

 
Автор Сообщение

достали все ®

Пол:

Стаж: 1 год 8 месяцев

Сообщений: 6581



Награды: 12 (Подробнее)

Mega Seeder 2 (Количество: 1) Mega Seeder 1 (Количество: 1) Mega Releaser 1 (Количество: 1)
Торрент-статистика

Создавать темы 23-Май-2016 08:33

[Цитировать]

Информация о фильме
Название: Молодость
Оригинальное название: Youth
Год выхода: 2015
Жанр: драма, комедия
Режиссер: Паоло Соррентино / Paolo Sorrentino
В ролях: Майкл Кейн, Харви Кейтель, Рэйчел Вайс, Пол Дано, Джейн Фонда, Роли Серрано, Алекс МакКуин, Луна Зимич Мийович, Мадалина Диана Генея, Роберт Ситалер
О фильме:
Фрэд — прославленный композитор и дирижер, вопреки просьбам Ее Величества, отказывается выступить на дне рождения принца Филиппа, и на это у него есть веская причина. Мик, оскароносный режиссер, вовсю работает над новым сценарием «фильма-откровения», но дело не слишком спорится.
Фрэд и Мик уже полвека дружат, смеются над собой и дивятся красоте и несправедливости этого мира. Это лето они проводят на альпийском курорте, где любовные переживания уже взрослых детей, случайно подсмотренные драмы и откровения далекого прошлого навсегда изменят судьбы друзей.

Страна: Италия, Франция, Великобритания, Швейцария
Студия: Barbary Films, Bundesamt für Kultur (EDI), C-Films AG, Canal+ [fr], Ciné, Film4, Fonds Eurimages du Conseil de l'Europe, France 2 Cinéma, France Télévisions, Indigo Film, Mediaset Premium, Medusa Film S.p.a., Ministero per i Beni e le Attività Culturali, Number 9 Films, Pathe, Regione del Veneto, Regione Lazio, RSI-Radiotelevisione Svizzera, SRG SSR idée suisse, Téléclub
Продолжительность: 01:58:45
Перевод: Дублированный [Лицензия]
Файл
Кодек: MPEG2
Качество: DVD9 R5
Видео: PAL 16:9 (720x576(0.652)) MPEG Video, 25,000 кадр/сек, 6763 Кбит/сек
Звук:
Аудио #1: Russian (Dolby AC3, 6 ch) 448 Кбит/сек, 48,0 КГц
Аудио #2: English (Dolby AC3, 2 ch) 192 Кбит/сек, 48,0 КГц
Субтитры: украинские

DVDInfo

Title: Molodost.2015.D.DVD9
Size: 6.90 Gb ( 7 237 606,00 KBytes ) - DVD-9
Enabled regions: 1, 2, 3, 4, 5, 6, 7, 8
VTS_01 :
Play Length: 00:00:15
Video: PAL 4:3 (720x576) VBR
Audio:
English (Dolby AC3, 2 ch)
VTS_02 :
Play Length: 00:00:07
Video: PAL 16:9 (720x576) VBR, Auto Letterboxed
Audio:
English (Dolby AC3, 2 ch)
VTS_03 :
Play Length: 00:01:48
Video: PAL 16:9 (720x576) VBR, Auto Letterboxed
Audio:
English (Dolby AC3, 2 ch)
English (Dolby AC3, 2 ch)
VTS_04 :
Play Length: 00:01:47
Video: PAL 16:9 (720x576) VBR, Auto Letterboxed
Audio:
English (Dolby AC3, 2 ch)
English (Dolby AC3, 2 ch)
VTS_05 :
Play Length: 00:01:48
Video: PAL 16:9 (720x576) VBR, Auto Letterboxed
Audio:
English (Dolby AC3, 2 ch)
English (Dolby AC3, 2 ch)
VTS_06 :
Play Length: 00:01:21
Video: PAL 16:9 (720x576) VBR, Auto Letterboxed
Audio:
English (Dolby AC3, 2 ch)
English (Dolby AC3, 2 ch)
VTS_07 :
Play Length: 00:02:02
Video: PAL 16:9 (720x576) VBR, Auto Letterboxed
Audio:
English (Dolby AC3, 2 ch)
English (Dolby AC3, 2 ch)
VTS_08 :
Play Length: 00:01:33
Video: PAL 16:9 (720x576) VBR, Auto Letterboxed
Audio:
English (Dolby AC3, 2 ch)
English (Dolby AC3, 2 ch)
VTS_09 :
Play Length: 00:01:56
Video: PAL 16:9 (720x576) VBR, Auto Letterboxed
Audio:
English (Dolby AC3, 2 ch)
English (Dolby AC3, 2 ch)
VTS_10 :
Play Length: 00:02:07
Video: PAL 16:9 (720x576) VBR, Auto Letterboxed
Audio:
English (Dolby AC3, 2 ch)
English (Dolby AC3, 2 ch)
VTS_11 :
Play Length: 00:00:15
Video: PAL 4:3 (720x576) VBR
Audio:
English (Dolby AC3, 2 ch)
VTS_12 :
Play Length: 01:58:45
Video: PAL 16:9 (720x576) VBR, Auto Letterboxed
Audio:
Russian, AC3, 3/2 (L,C,R,SL,SR)+LFE ch, 448 kbps, Delay 0 mSec
English, AC3, 2/0 (L,R) ch, 192 kbps, Delay 0 mSec
Subtitles:
English
* Menus Information *
VIDEO_TS Menu
Video:
PAL 4:3 (720x576) VBR
English Language Unit :
Title Menu
VTS_01 Menu
Video:
PAL 16:9 (720x576) VBR
Auto Letterboxed
Audio:
Not specified (Dolby AC3, 2 ch)
English Language Unit :
Root Menu
VTS_02 Menu
Video:
PAL 4:3 (720x576) VBR
English Language Unit :
Root Menu
VTS_03 Menu
Video:
PAL 4:3 (720x576) VBR
English Language Unit :
Root Menu
VTS_04 Menu
Video:
PAL 4:3 (720x576) VBR
English Language Unit :
Root Menu
VTS_05 Menu
Video:
PAL 4:3 (720x576) VBR
English Language Unit :
Root Menu
VTS_06 Menu
Video:
PAL 4:3 (720x576) VBR
English Language Unit :
Root Menu
VTS_07 Menu
Video:
PAL 4:3 (720x576) VBR
English Language Unit :
Root Menu
VTS_08 Menu
Video:
PAL 4:3 (720x576) VBR
English Language Unit :
Root Menu
VTS_09 Menu
Video:
PAL 4:3 (720x576) VBR
English Language Unit :
Root Menu
VTS_10 Menu
Video:
PAL 4:3 (720x576) VBR
English Language Unit :
Root Menu
VTS_11 Menu
Video:
PAL 4:3 (720x576) VBR
English Language Unit :
Root Menu
VTS_12 Menu
Video:
PAL 4:3 (720x576) VBR
English Language Unit :
Root Menu

MediaInfo

Общее
Полное имя : D:Новинки 2016Molodost.2015.D.DVD9VIDEO_TSVTS_12_3.VOB
Формат : MPEG-PS
Размер файла : 1024 Мбайт
Продолжительность : 18 м.
Режим общего битрейта : Переменный
Общий поток : 7553 Кбит/сек
Видео
Идентификатор : 224 (0xE0)
Формат : MPEG Video
Версия формата : Version 2
Профиль формата : Main@Main
Параметр BVOP формата : Да
Параметр матрицы формата : По умолчанию
Параметр GOP формата : M=3, N=12
Продолжительность : 18 м.
Вид битрейта : Переменный
Битрейт : 6763 Кбит/сек
Максимальный битрейт : 8500 Кбит/сек
Ширина : 720 пикселей
Высота : 576 пикселей
Соотношение сторон : 16:9
Частота кадров : 25,000 кадров/сек
Стандарт вещания : PAL
Цветовое пространство : YUV
Субдискретизация насыщенности : 4:2:0
Битовая глубина : 8 бит
Тип развёртки : Прогрессивная
Метод сжатия : С потерями
Бит/(Пиксели*Кадры) : 0.652
Временной код первого кадра : 00:37:52:12
Оригинал временного кода : Group of pictures header
Размер потока : 917 Мбайт (90%)
Аудио #1
Идентификатор : 189 (0xBD)-128 (0x80)
Формат : AC-3
Формат/Информация : Audio Coding 3
Расширение режима : CM (complete main)
Параметр Endianness формата : Big
Режим смешивания : DVD-Video
Продолжительность : 18 м.
Вид битрейта : Постоянный
Битрейт : 448 Кбит/сек
Каналы : 6 каналов
Расположение каналов : Front: L C R, Side: L R, LFE
Частота : 48,0 КГц
Частота кадров : 31,250 кадров/сек (1536 spf)
Метод сжатия : С потерями
Задержка видео : -160 мс.
Размер потока : 60,7 Мбайт (6%)
Аудио #2
Идентификатор : 189 (0xBD)-129 (0x81)
Формат : AC-3
Формат/Информация : Audio Coding 3
Расширение режима : CM (complete main)
Параметр Endianness формата : Big
Режим смешивания : DVD-Video
Продолжительность : 18 м.
Вид битрейта : Постоянный
Битрейт : 192 Кбит/сек
Каналы : 2 канала
Расположение каналов : Front: L R
Частота : 48,0 КГц
Частота кадров : 31,250 кадров/сек (1536 spf)
Метод сжатия : С потерями
Задержка видео : -96 мс.
Размер потока : 26,0 Мбайт (3%)
Текст #1
Идентификатор : 189 (0xBD)-33 (0x21)
Формат : RLE
Формат/Информация : Run-length encoding
Режим смешивания : DVD-Video
Текст #2
Идентификатор : 189 (0xBD)-34 (0x22)
Формат : RLE
Формат/Информация : Run-length encoding
Режим смешивания : DVD-Video

Скриншоты меню

Скриншоты фильма

Релиз от:
[Профиль] [ЛС]
Показать сообщения:    

Текущее время: Сегодня 16:22

Часовой пояс: GMT



Вы не можете начинать темы
Вы не можете отвечать на сообщения
Вы не можете редактировать свои сообщения
Вы не можете удалять свои сообщения
Вы не можете голосовать в опросах
Вы не можете прикреплять файлы к сообщениям
Вы не можете скачивать файлы