Молодость / Youth (2015) BDRip 1080p | Лицензия

 
Автор Сообщение

BOSS ®

Пол:

Стаж: 2 года 1 месяц

Сообщений: 3748

Откуда: ODESSA



Награды: 20 (Подробнее)

Top Releaser 3 (Количество: 1) Mega Seeder 1 (Количество: 1) Top Releaser 2 (Количество: 1)
Торрент-статистика

Создавать темы 02-Мар-2016 20:16

[Цитировать]

Информация о фильме
Название: Молодость
Оригинальное название: Youth
Страна: Италия, Франция, Швейцария, Великобритания
Студия: Indigo Film, Bis Films, Path, C-Films
Жанр: Драма
Год выпуска: 2015
Продолжительность: 02:03:33
Перевод: Профессиональный (дублированный)
Cубтитры: Rus, Eng
Оригинальная аудиодорожка: английский
Режиссер: Паоло Соррентино / Paolo Sorrentino
В ролях: Майкл Кейн, Харви Кейтель, Рэйчел Вайс, Пол Дано, Джейн Фонда, Марк Козелек, Роберт Ситалер, Алекс МакКуин, Луна Зимич Мийович, Том Липински
Описание: Фрэд — прославленный композитор и дирижер, вопреки просьбам Ее Величества, отказывается выступить на дне рождения принца Филиппа, и на это у него есть веская причина. Мик, оскароносный режиссер, вовсю работает над новым сценарием «фильма-откровения», но дело не слишком спорится.
Фрэд и Мик уже полвека дружат, смеются над собой и дивятся красоте и несправедливости этого мира. Это лето они проводят на альпийском курорте, где любовные переживания уже взрослых детей, случайно подсмотренные драмы и откровения далекого прошлого навсегда изменят судьбы друзей.

Тип релиза: BDRip 1080p
Контейнер: MKV
Видео: MPEG-4 AVC, 11.2 Mбит/с, 1920x804, 23,976 fps
Аудио: Rus, AC3, 448 kb/s (6 ch), 48 kHz
Аудио 2: Eng, DTS, 1510 kb/s (6 ch), 48 kHz
Формат субтитров: softsub (SRT)

MediaInfo

x264 [info]: frame I:1343 Avg QP:15.08 size:207724
x264 [info]: frame P:34638 Avg QP:16.90 size:103537
x264 [info]: frame B:141769 Avg QP:17.98 size: 47401
Format : Matroska
Format version : Version 4 / Version 2
File size : 11.6 GiB
Duration : 2h 3mn
Overall bit rate : 13.4 Mbps
Movie name : Молодость. (Tonik)
Encoded date : UTC 2016-03-02 19:36:05
Writing application : mkvmerge v7.1.0 ('Good Love') 64bit built on Jul 27 2014 13:06:55
Writing library : libebml v1.3.0 + libmatroska v1.4.1
_STATISTICS_WRITING_APP : mkvmerge v7.1.0 ('Good Love') 64bit built on Jul 27 2014 13:06:55
_STATISTICS_WRITING_DATE_UTC : 2016-03-02 19:36:05
_STATISTICS_TAGS : BPS DURATION NUMBER_OF_FRAMES NUMBER_OF_BYTES
DURATION : 02:03:37.056000000
NUMBER_OF_FRAMES : 695349
NUMBER_OF_BYTES : 1399042284
Video
ID : 1
Format : AVC
Format/Info : Advanced Video Codec
Format profile : High@L4.1
Format settings, CABAC : Yes
Format settings, ReFrames : 5 frames
Codec ID : V_MPEG4/ISO/AVC
Duration : 2h 3mn
Bit rate : 11.2 Mbps
Width : 1 920 pixels
Height : 804 pixels
Display aspect ratio : 2.40:1
Frame rate mode : Constant
Frame rate : 23.976 fps
Color space : YUV
Chroma subsampling : 4:2:0
Bit depth : 8 bits
Scan type : Progressive
Bits/(Pixel*Frame) : 0.301
Stream size : 9.63 GiB (83%)
Writing library : x264 core 146 r2538kMod 121396c
Encoding settings : cabac=1 / ref=5 / deblock=1:-3:-3 / analyse=0x3:0x133 / me=umh / subme=10 / psy=1 / fade_compensate=0.00 / psy_rd=1.10:0.00 / mixed_ref=1 / me_range=24 / chroma_me=1 / trellis=2 / 8x8dct=1 / cqm=0 / deadzone=21,11 / fast_pskip=0 / chroma_qp_offset=-2 / threads=12 / lookahead_threads=2 / sliced_threads=0 / nr=0 / decimate=0 / interlaced=0 / bluray_compat=0 / constrained_intra=0 / fgo=0 / bframes=7 / b_pyramid=2 / b_adapt=2 / b_bias=0 / direct=3 / weightb=1 / open_gop=0 / weightp=2 / keyint=250 / keyint_min=23 / scenecut=40 / intra_refresh=0 / rc_lookahead=60 / rc=crf / mbtree=0 / crf=17.8000 / qcomp=0.70 / qpmin=0 / qpmax=69 / qpstep=4 / vbv_maxrate=62500 / vbv_bufsize=78125 / crf_max=0.0 / nal_hrd=none / filler=0 / ip_ratio=1.30 / pb_ratio=1.20 / aq=3:0.82
Language : English
Default : Yes
Forced : No
Matrix coefficients : BT.709
DURATION : 02:03:33.657000000
NUMBER_OF_FRAMES : 177750
NUMBER_OF_BYTES : 10585326407
_STATISTICS_WRITING_APP : mkvmerge v7.1.0 ('Good Love') 64bit built on Jul 27 2014 13:06:55
_STATISTICS_WRITING_DATE_UTC : 2016-03-02 19:36:05
_STATISTICS_TAGS : BPS DURATION NUMBER_OF_FRAMES NUMBER_OF_BYTES
Audio #1
ID : 2
Format : AC-3
Format/Info : Audio Coding 3
Mode extension : CM (complete main)
Format settings, Endianness : Big
Codec ID : A_AC3
Duration : 2h 3mn
Bit rate mode : Constant
Bit rate : 448 Kbps
Channel(s) : 6 channels
Channel positions : Front: L C R, Side: L R, LFE
Sampling rate : 48.0 KHz
Bit depth : 16 bits
Compression mode : Lossy
Stream size : 396 MiB (3%)
Language : Russian
Default : Yes
Forced : No
Audio #2
ID : 3
Format : DTS
Format/Info : Digital Theater Systems
Mode : 16
Format settings, Endianness : Big
Codec ID : A_DTS
Duration : 2h 3mn
Bit rate mode : Constant
Bit rate : 1 509 Kbps
Channel(s) : 6 channels
Channel positions : Front: L C R, Side: L R, LFE
Sampling rate : 48.0 KHz
Bit depth : 24 bits
Compression mode : Lossy
Stream size : 1.30 GiB (11%)
Language : English
Default : No
Forced : No
Text #1
ID : 4
Format : UTF-8
Codec ID : S_TEXT/UTF8
Codec ID/Info : UTF-8 Plain Text
Language : Russian
Default : No
Forced : No
Text #2
ID : 5
Format : UTF-8
Codec ID : S_TEXT/UTF8
Codec ID/Info : UTF-8 Plain Text
Language : English
Default : No
Forced : No
Menu
00:00:00.000 : en:00:00:00.000
00:07:52.806 : en:00:07:52.806
00:13:19.549 : en:00:13:19.549
00:20:04.620 : en:00:20:04.620
00:26:32.549 : en:00:26:32.549
00:43:57.635 : en:00:43:57.635
00:47:56.332 : en:00:47:56.332
00:53:46.056 : en:00:53:46.056
00:56:47.487 : en:00:56:47.487
01:03:54.330 : en:01:03:54.330
01:15:18.180 : en:01:15:18.180
01:23:02.769 : en:01:23:02.769
01:30:32.427 : en:01:30:32.427
01:35:09.871 : en:01:35:09.871
01:43:46.053 : en:01:43:46.053
01:47:43.624 : en:01:47:43.624

Скриншоты

[Профиль] [ЛС]
Показать сообщения:    

Текущее время: Сегодня 05:17

Часовой пояс: GMT



Вы не можете начинать темы
Вы не можете отвечать на сообщения
Вы не можете редактировать свои сообщения
Вы не можете удалять свои сообщения
Вы не можете голосовать в опросах
Вы не можете прикреплять файлы к сообщениям
Вы не можете скачивать файлы