Молодость / Youth (2015) BDRip 720p | Чистый звук

 
Автор Сообщение

Russian Mafia ®

Пол:

Стаж: 1 год 8 месяцев

Сообщений: 4246



Награды: 10 (Подробнее)

Top Releaser 2 (Количество: 1) Mega Seeder 2 (Количество: 1) Mega Seeder 4 (Количество: 1)
Торрент-статистика

Создавать темы 21-Ноя-2015 05:55

[Цитировать]

Информация о фильме
Название: Молодость
Оригинальное название: Youth
Год выхода: 2015
Жанр: драма
Режиссер: Паоло Соррентино
В ролях: Майкл Кейн, Харви Кейтель, Рэйчел Вайс, Пол Дано, Джейн Фонда, Марк Козелек, Роберт Ситалер, Алекс МакКуин, Луна Зимич Мийович, Том Липински
О фильме: Фрэд — прославленный композитор и дирижер, вопреки просьбам Ее Величества, отказывается выступить на Дне Рождении принца Филиппа, и на это у него есть веская причина. Мик, оскароносный режиссер, вовсю работает над новым сценарием «фильма-откровения», но дело не слишком спорится. Фрэд и Мик уже полвека дружат, смеются над собой и дивятся красоте и несправедливости этого мира. Это лето они проводят на альпийском курорте, где любовные переживания уже взрослых детей, случайно подсмотренные драмы и откровения далекого прошлого навсегда изменят судьбы друзей.

Выпущено: Италия, Франция, Швейцария, Великобритания / Medusa Mediaset Group, Indigo Film, Barbary Films, Number 9 Films, C-Films
Продолжительность: 02:03:33
Озвучивание: Дублированное [Чистый звук]
Файл
Формат: MKV
Качество: BDRip 720p
Видео: MPEG-4 AVC, 4552 kb/s, 1280x536
Аудио: Russian: AC3, 128 kb/s (2 ch) / English: AC3, 640 kb/s (6 ch)

MI

Format : Matroska
Format version : Version 2
File size : 4.69 GiB
Duration : 2h 3mn
Overall bit rate : 5 429 Kbps
Encoded date : UTC 2015-11-21 00:34:11
Writing application : mkvmerge v7.8.0 ('River Man') 32bit built on Apr 3 2015 12:11:22
Writing library : libebml v1.3.1 + libmatroska v1.4.2
Video
ID : 1
Format : AVC
Format/Info : Advanced Video Codec
Format profile : High@L4.1
Format settings, CABAC : Yes
Format settings, ReFrames : 12 frames
Codec ID : V_MPEG4/ISO/AVC
Duration : 2h 3mn
Bit rate : 4 552 Kbps
Width : 1 280 pixels
Height : 536 pixels
Display aspect ratio : 2.40:1
Frame rate mode : Constant
Frame rate : 23.976 fps
Color space : YUV
Chroma subsampling : 4:2:0
Bit depth : 8 bits
Scan type : Progressive
Bits/(Pixel*Frame) : 0.277
Stream size : 3.93 GiB (84%)
Writing library : x264 core 146 r2538kMod 121396c
Encoding settings : cabac=1 / ref=12 / deblock=1:-3:-3 / analyse=0x3:0x133 / me=umh / subme=10 / psy=1 / fade_compensate=0.00 / psy_rd=1.10:0.00 / mixed_ref=1 / me_range=24 / chroma_me=1 / trellis=2 / 8x8dct=1 / cqm=0 / deadzone=21,11 / fast_pskip=0 / chroma_qp_offset=-2 / threads=12 / lookahead_threads=2 / sliced_threads=0 / nr=0 / decimate=0 / interlaced=0 / bluray_compat=0 / constrained_intra=0 / fgo=0 / bframes=7 / b_pyramid=2 / b_adapt=2 / b_bias=0 / direct=3 / weightb=1 / open_gop=0 / weightp=2 / keyint=250 / keyint_min=23 / scenecut=40 / intra_refresh=0 / rc_lookahead=60 / rc=crf / mbtree=0 / crf=17.0000 / qcomp=0.70 / qpmin=0 / qpmax=69 / qpstep=4 / vbv_maxrate=62500 / vbv_bufsize=78125 / crf_max=0.0 / nal_hrd=none / filler=0 / ip_ratio=1.30 / pb_ratio=1.20 / aq=3:0.82
Language : English
Default : Yes
Forced : No
Color range : Limited
Matrix coefficients : BT.709
Audio #1
ID : 2
Format : AC-3
Format/Info : Audio Coding 3
Mode extension : CM (complete main)
Format settings, Endianness : Big
Codec ID : A_AC3
Duration : 2h 3mn
Bit rate mode : Constant
Bit rate : 128 Kbps
Channel(s) : 2 channels
Channel positions : Front: L R
Sampling rate : 48.0 KHz
Bit depth : 16 bits
Compression mode : Lossy
Stream size : 113 MiB (2%)
Language : Russian
Default : Yes
Forced : No
Audio #2
ID : 3
Format : AC-3
Format/Info : Audio Coding 3
Mode extension : CM (complete main)
Format settings, Endianness : Big
Codec ID : A_AC3
Duration : 2h 3mn
Bit rate mode : Constant
Bit rate : 640 Kbps
Channel(s) : 6 channels
Channel positions : Front: L C R, Side: L R, LFE
Sampling rate : 48.0 KHz
Bit depth : 16 bits
Compression mode : Lossy
Stream size : 566 MiB (12%)
Language : English
Default : No
Forced : No
Text
ID : 4
Format : UTF-8
Codec ID : S_TEXT/UTF8
Codec ID/Info : UTF-8 Plain Text
Title : English FORCED
Language : English
Default : No
Forced : No
Menu
00:00:00.000 : en:00:00:00.000
00:07:52.806 : en:00:07:52.806
00:13:19.549 : en:00:13:19.549
00:20:04.620 : en:00:20:04.620
00:26:32.549 : en:00:26:32.549
00:43:57.635 : en:00:43:57.635
00:47:56.332 : en:00:47:56.332
00:53:46.056 : en:00:53:46.056
00:56:47.487 : en:00:56:47.487
01:03:54.330 : en:01:03:54.330
01:15:18.180 : en:01:15:18.180
01:23:02.769 : en:01:23:02.769
01:30:32.427 : en:01:30:32.427
01:35:09.871 : en:01:35:09.871
01:43:46.053 : en:01:43:46.053
01:47:43.624 : en:01:47:43.624

Скриншоты



[Профиль] [ЛС]
Показать сообщения:    

Текущее время: Сегодня 04:59

Часовой пояс: GMT



Вы не можете начинать темы
Вы не можете отвечать на сообщения
Вы не можете редактировать свои сообщения
Вы не можете удалять свои сообщения
Вы не можете голосовать в опросах
Вы не можете прикреплять файлы к сообщениям
Вы не можете скачивать файлы