Молодой детектив Ди: Восстание морского дракона в 3Д / Young Detective Dee: Rise of the Sea Dragon 3D (Цуй Харк / Tsui Hark) [2013, Фэнтези, Боевик, Детектив, Приключения, BDrip-AVC] DVO, Half OverUnder / Вертикальная анаморфная стереопара

 
Автор Сообщение

TorrentFilm ®

Пол:

Стаж: 1 год 11 месяцев

Сообщений: 7741



Награды: Нет

Торрент-статистика

Создавать темы 01-Янв-2016 00:20

[Цитировать]

Молодой детектив Ди: Восстание морского дракона
Di Renjie: Shen du long wang
Young Detective Dee: Rise of the Sea Dragon

Год выпуска: 2013
Страна: Китай, Гонконг (Emperor Motion Pictures, Huayi Brothers Media)
Жанр: Фэнтези, Боевик, Детектив, Приключения
Продолжительность: 02:14:01
Перевод: Любительский двухголосый закадровый [Ольга Гринтиева и Дмитрий Познанский (GREEN TEA)]
Режиссер: Цуй Харк / Tsui Hark-Роли исполняли:
............
... - Анджела Бейби
Detective Dee - Марк Чао
... - Чэнь Кунь
Yuchi Zhenjin - Уилльям Фэн
... - Дун Ху
Yuan Zhen - Ким Бом
Empress Wu Zetian - Карина Лау
... - Линь Гэн Синь
... - Zhaoxu Lin
... - Цзинцзин Ма
... - Чиэнь Шэн
-Описание: Посреди океана огромное судно терпит крушение. Ученые не понимают, как же это могло случится, ведь в период крушения судна, не было никакого серьезного шторма или же каких-то других катаклизмов. В общем, получается, что данный случай просто невозможно объяснить. Что же все таки случилось с кораблем? Что случилось со всеми членами нашей команды? На этот сложный вопрос должен будет ответить один молодой детектив, зовут которого Ди. Для того, чтобы ответить на этот сложный и страшный вопрос, ему потребуется отправиться к месту крушения этого судна. Парень совсем не догадывается о том, что в водах океана ожило какое-то чудовище. Получается так, что это чудовище только и ждет того, чтобы на эту территорию прибыл еще один корабль. Ведь именно за счет кораблей это древнее чудовище просто питается. Чудовище сможет разрушить любой корабль...
Доп. информация: 3Д глубокое и фильм красивый, как обычно у азиатов.
Качество звука исходной русской дороги оставляло желать лучшего.-Премьера: 26 сентября 2013
. .
-Качество: BDRip (by Ash61)
Контейнер: MKV
Формат 3D: Half OverUnder / Вертикальная анаморфная стереопара
Порядок ракурсов: левый ракурс первый
Видео кодек: x264
Аудио кодек: AC3-Видео: AVC / 23,976 fps / 1920х1080p / 9.9 Mbps
Аудио:
#1 - Русский / AC3 / 48 KHz / 2 ch / 192 Kbps (DVO - GREEN TEA) (Перевод: Евгений Матяш и Валерия Эстонка) Edit by Ash61
#2 - Китайский / AC3 / 48 KHz / 5.1 ch / 640 Kbps (Original - BD 3D)
Субтитры: (SRT)
Внешние (UTF-8):
#1 - Русские Форсированные (включены по умолчанию) Made by Ash61
#2 - English Full (Extract & Edit by Ash61)
Вшитые (softsub):
#1 - Русские Форсированные (включены по умолчанию) Made by Ash61

MediaInfo

General
Unique ID : 177308981237975136975489672715809162470 (0x856477B7175D90A88F6B3C409BDD84E6)
Complete name : E:\YoungDetectiveDee.RiseOfTheSeaDragon(2013)3D-halfOU(Ash61)DVO\YoungDetectiveDee.RiseOfTheSeaDragon(2013)3D-halfOU(Ash61)DVO.mkv
Format : Matroska
Format version : Version 2
File size : 10.3 GiB
Duration : 2h 14mn
Overall bit rate : 11.0 Mbps
Movie name : Молодой детектив Ди: Восстание морского дракона / Young Detective Dee: Rise of the Sea Dragon (2013) 3D
Encoded date : UTC 2013-12-26 12:28:31
Writing application : mkvmerge v5.8.0 ('No Sleep / Pillow') built on Sep 2 2012 15:37:04
Writing library : libebml v1.2.3 + libmatroska v1.3.0
Video
ID : 1
Format : AVC
Format/Info : Advanced Video Codec
Format profile : High@L4.1
Format settings, CABAC : Yes
Format settings, ReFrames : 4 frames
Codec ID : V_MPEG4/ISO/AVC
Duration : 2h 14mn
Bit rate : 9 939 Kbps
Width : 1 920 pixels
Height : 1 080 pixels
Display aspect ratio : 16:9
Frame rate mode : Constant
Frame rate : 23.976 fps
Color space : YUV
Chroma subsampling : 4:2:0
Bit depth : 8 bits
Scan type : Progressive
Bits/(Pixel*Frame) : 0.200
Stream size : 9.30 GiB (90%)
Title : BDRip by Ash61
Writing library : x264 core 129 r2245 bc13772
Encoding settings : cabac=1 / ref=4 / deblock=1:-3:-3 / analyse=0x3:0x113 / me=umh / subme=10 / psy=1 / psy_rd=1.00:0.15 / mixed_ref=1 / me_range=32 / chroma_me=1 / trellis=2 / 8x8dct=1 / cqm=0 / deadzone=21,11 / fast_pskip=1 / chroma_qp_offset=-3 / threads=12 / lookahead_threads=2 / sliced_threads=0 / nr=0 / decimate=1 / interlaced=0 / bluray_compat=0 / constrained_intra=0 / bframes=9 / b_pyramid=2 / b_adapt=2 / b_bias=0 / direct=3 / weightb=1 / open_gop=0 / weightp=2 / keyint=250 / keyint_min=23 / scenecut=40 / intra_refresh=0 / rc_lookahead=60 / rc=crf / mbtree=1 / crf=17.0 / qcomp=0.70 / qpmin=0 / qpmax=69 / qpstep=4 / vbv_maxrate=40000 / vbv_bufsize=30000 / crf_max=0.0 / nal_hrd=none / frame-packing=4 / ip_ratio=1.40 / aq=1:0.70
Language : Chinese
Default : Yes
Forced : No
Audio #1
ID : 2
Format : AC-3
Format/Info : Audio Coding 3
Mode extension : CM (complete main)
Format settings, Endianness : Big
Codec ID : A_AC3
Duration : 2h 14mn
Bit rate mode : Constant
Bit rate : 192 Kbps
Channel(s) : 2 channels
Channel positions : Front: L R
Sampling rate : 48.0 KHz
Bit depth : 16 bits
Compression mode : Lossy
Stream size : 184 MiB (2%)
Title : Двухголосый закадровый - Ольга Гринтиева и Дмитрий Познанский
Language : Russian
Default : Yes
Forced : No
Audio #2
ID : 3
Format : AC-3
Format/Info : Audio Coding 3
Mode extension : CM (complete main)
Format settings, Endianness : Big
Codec ID : A_AC3
Duration : 2h 14mn
Bit rate mode : Constant
Bit rate : 640 Kbps
Channel(s) : 6 channels
Channel positions : Front: L C R, Side: L R, LFE
Sampling rate : 48.0 KHz
Bit depth : 16 bits
Compression mode : Lossy
Stream size : 613 MiB (6%)
Title : Original - BD 3D
Language : Chinese
Default : No
Forced : No
Text
ID : 4
Format : UTF-8
Codec ID : S_TEXT/UTF8
Codec ID/Info : UTF-8 Plain Text
Title : Форсированные (made by Ash61)
Language : Russian
Default : Yes
Forced : No
Menu
00:00:24.288 : :1
00:12:49.449 : :2
00:22:55.388 : :3
00:33:18.927 : :4
00:46:35.765 : :5
00:56:19.723 : :6
01:06:50.437 : :7
01:18:21.294 : :8
01:29:52.818 : :9
01:41:11.788 : :10
01:52:01.854 : :11
02:04:42.447 : :12

Для оценки 3Д - Анимированные скрины


















[Профиль] [ЛС]
Показать сообщения:    

Текущее время: Сегодня 00:40

Часовой пояс: GMT



Вы не можете начинать темы
Вы не можете отвечать на сообщения
Вы не можете редактировать свои сообщения
Вы не можете удалять свои сообщения
Вы не можете голосовать в опросах
Вы не можете прикреплять файлы к сообщениям
Вы не можете скачивать файлы