Молодежная лихорадка / Молодежь занимается сексом / Молодежь трахается / Young People Fuck (Мартин Джеро / Martin Gero) [2007, Канада, драма, мелодрама, комедия, BDRip] MVO (R5)

 
Автор Сообщение

TorrentFilm ®

Пол:

Стаж: 2 года

Сообщений: 7741



Награды: Нет

Торрент-статистика

Создавать темы 24-Сен-2015 00:10

[Цитировать]

Молодежная лихорадка / Молодежь занимается сексом / Молодежь трахается / Young People Fucking- Год выпуска: 2007
Страна: Канада
Жанр: драма, мелодрама, комедия
Продолжительность: 01:30:28
Перевод: Профессиональный (многоголосый, закадровый) R5
Субтитры: нет-Режиссер: Мартин Джеро / Martin Gero
В ролях: Аарон Абрамс, Карли Поуп, Кристин Бут, Джош Дин, Соня Беннет, Джош Кук, Диора Бэрд, Каллум Блу, Эннис Эсмер, Питер Олдринг, Натали Лисинска
О фильме: О чем только думает эта молодежь!? Чаще всего — о сексе. Пять пар молодых людей решили посвятить его практическому исследованию целую ночь. Но взаимоотношения мужчины и женщины — дело непростое и все обернулось чередой разных недоразумений, нелепостей и забавных проблем…-Релиз:
Автор: yaroslaigor
Качество: BDRip (источник: / BD-Remux / 1080p)
Формат: AVI
Видео: 720x400 (1.80:1), 23.976 fps, XviD build 65 ~1905 kbps avg, 0.28 bit/pixel
Аудио: 48 kHz, AC3 Dolby Digital, 3/2 (L,C,R,l,r) + LFE ch, ~384.00 kbps avg
Размер: 1487.81 Mb (1/3 DVD-R)
Скачать: Семпл-

Кадры из фильма


-

Mi

Формат : AVI
Формат/Информация : Audio Video Interleave
Размер файла : 1,45 Гбайт
Продолжительность : 1 ч. 30 м.
Общий поток : 2299 Кбит/сек
Название фильма : Молодежная лихорадка / Young People Fucking (2007) BDRip
Режиссёр : yaroslaigor
Жанр : драма, мелодрама, комедия
Программа кодирования : VirtualDubMod 1.5.10.2 (build 2542/release)
Правообладатель : HQCLUB
Примечание : 20.09.2015
Видео
Идентификатор : 0
Формат : MPEG-4 Visual
Профиль формата : Advanced Simple@L5
Параметр BVOP формата : 1
Параметр QPel формата : Нет
Параметр GMC формата : Без точки перехода
Параметр матрицы формата : Выборочная
Идентификатор кодека : XVID
Идентификатор кодека/Подсказка : XviD
Продолжительность : 1 ч. 30 м.
Битрейт : 1906 Кбит/сек
Ширина : 720 пикселей
Высота : 400 пикселей
Соотношение сторон : 16:9
Частота кадров : 23,976 кадра/сек
Цветовое пространство : YUV
Субдискретизация насыщенности : 4:2:0
Битовая глубина : 8 бит
Тип развёртки : Прогрессивная
Метод сжатия : С потерями
Бит/(Пиксели*Кадры) : 0.276
Размер потока : 1,20 Гбайт (83%)
Библиотека кодирования : XviD 65
Аудио
Идентификатор : 1
Формат : AC-3
Формат/Информация : Audio Coding 3
Расширение режима : CM (complete main)
Параметр Endianness формата : Big
Идентификатор кодека : 2000
Продолжительность : 1 ч. 30 м.
Вид битрейта : Постоянный
Битрейт : 384 Кбит/сек
Каналы : 6 каналов
Расположение каналов : Front: L C R, Side: L R, LFE
Частота : 48,0 КГц
Битовая глубина : 16 бит
Метод сжатия : С потерями
Размер потока : 248 Мбайт (17%)
Выравнивание : Разделение по промежуткам
Продолжительность промежутка : 42 мс. (1,00 видеокадр)
Время предзагрузки промежутка : 500 мс.
-
[Профиль] [ЛС]
Показать сообщения:    

Текущее время: Сегодня 02:37

Часовой пояс: GMT



Вы не можете начинать темы
Вы не можете отвечать на сообщения
Вы не можете редактировать свои сообщения
Вы не можете удалять свои сообщения
Вы не можете голосовать в опросах
Вы не можете прикреплять файлы к сообщениям
Вы не можете скачивать файлы