Молодежная лихорадка / Young People Fucking (Мартин Джеро / Martin Gero) [2007, Канада, драма, мелодрама, комедия, BDRip-AVC] MVO (R5) + Sub Rus + Original Eng

 
Автор Сообщение

TorrentFilm ®

Пол:

Стаж: 2 года

Сообщений: 7741



Награды: Нет

Торрент-статистика

Создавать темы 19-Май-2015 00:04

[Цитировать]

Молодежная лихорадка / Young People Fucking
Страна: Канада
Жанр: драма, мелодрама, комедия
Год выпуска: 2007
Продолжительность: 1:30:28
Перевод: Профессиональный (многоголосый закадровый) R5
Cубтитры: русские
Оригинальная аудиодорожка: английский
Режиссер: Мартин Джеро / Martin Gero
В ролях: Аарон Абрамс, Карли Поуп, Кристин Бут, Джош Дин, Соня Беннет, Джош Кук, Диора Бэрд, Каллум Блу, Эннис Эсмер, Питер Олдринг
Описание: О чем только думает эта молодежь!? Чаще всего — о сексе. Пять пар молодых людей решили посвятить его практическому исследованию целую ночь. Но взаимоотношения мужчины и женщины — дело непростое и все обернулось чередой разных недоразумений, нелепостей и забавных проблем…

Сэмпл: http://sendfile.su/1118519
Качество видео: BDRip-AVC [Blu-ray Disc -BLUEBIRD]
Формат видео: MKV
Видео: AVC, 1152 x 648 (16:9), 2649 kbps, 23,976 fps, 0.148 bpp
Аудио: AC3, 6ch, 48 kHz, 384 kbps, 16 bit
Аудио 2: AC3, 6ch, 48 kHz, 448 kbps, 16 bit
Формат субтитров: softsub (SRT)

MediaInfo

Уникальный идентификатор : 247568778080556420551189425508028857278 (0xBA40032618EF3B2080CBF67628313BBE)
Полное имя : F:\Films\Young People\Young_People.mkv
Формат : Matroska
Версия формата : Version 4 / Version 2
Размер файла : 2,20 Гбайт
Продолжительность : 1 ч. 30 м.
Общий поток : 3482 Кбит/сек
Дата кодирования : UTC 2015-05-16 03:04:48
Программа кодирования : mkvmerge v7.7.0 ('Six Voices') 64bit built on Feb 28 2015 23:39:33
Библиотека кодирования : libebml v1.3.1 + libmatroska v1.4.2
_STATISTICS_WRITING_APP : mkvmerge v7.7.0 ('Six Voices') 64bit built on Feb 28 2015 23:39:33
_STATISTICS_WRITING_DATE_UTC : 2015-05-16 03:04:48
_STATISTICS_TAGS : BPS DURATION NUMBER_OF_FRAMES NUMBER_OF_BYTES
DURATION : 01:25:20.740000000
NUMBER_OF_FRAMES : 1213
NUMBER_OF_BYTES : 67504
Видео
Идентификатор : 1
Формат : AVC
Формат/Информация : Advanced Video Codec
Профиль формата : High@L4.1
Параметр CABAC формата : Да
Параметр ReFrames формата : 8 кадров
Идентификатор кодека : V_MPEG4/ISO/AVC
Продолжительность : 1 ч. 30 м.
Битрейт : 2649 Кбит/сек
Ширина : 1152 пикселя
Высота : 648 пикселей
Соотношение сторон : 16:9
Режим частоты кадров : Постоянный
Частота кадров : 23,976 кадра/сек
Цветовое пространство : YUV
Субдискретизация насыщенности : 4:2:0
Битовая глубина : 8 бит
Тип развёртки : Прогрессивная
Бит/(Пиксели*Кадры) : 0.148
Размер потока : 1,63 Гбайт (74%)
Библиотека кодирования : x264 core 142 r2431 ac76440
Настройки программы : cabac=1 / ref=8 / deblock=1:-2:-1 / analyse=0x3:0x133 / me=umh / subme=9 / psy=1 / psy_rd=1.00:0.05 / mixed_ref=0 / me_range=36 / chroma_me=1 / trellis=2 / 8x8dct=1 / cqm=0 / deadzone=21,11 / fast_pskip=0 / chroma_qp_offset=-3 / threads=4 / lookahead_threads=1 / sliced_threads=0 / nr=0 / decimate=0 / interlaced=0 / bluray_compat=0 / constrained_intra=0 / bframes=12 / b_pyramid=2 / b_adapt=2 / b_bias=0 / direct=1 / weightb=1 / open_gop=0 / weightp=2 / keyint=240 / keyint_min=23 / scenecut=40 / intra_refresh=0 / rc=2pass / mbtree=0 / bitrate=2649 / ratetol=1.0 / qcomp=0.60 / qpmin=10 / qpmax=69 / qpstep=4 / cplxblur=20.0 / qblur=0.5 / ip_ratio=1.40 / pb_ratio=1.30 / aq=1:1.00
Default : Да
Forced : Нет
Аудио #1
Идентификатор : 2
Формат : AC-3
Формат/Информация : Audio Coding 3
Расширение режима : CM (complete main)
Параметр Endianness формата : Big
Идентификатор кодека : A_AC3
Продолжительность : 1 ч. 30 м.
Вид битрейта : Постоянный
Битрейт : 384 Кбит/сек
Каналы : 6 каналов
Расположение каналов : Front: L C R, Side: L R, LFE
Частота : 48,0 КГц
Битовая глубина : 16 бит
Метод сжатия : С потерями
Размер потока : 248 Мбайт (11%)
Заголовок : Русский многоголосый закадровый R5
Язык : Russian
Default : Да
Forced : Нет
Аудио #2
Идентификатор : 3
Формат : AC-3
Формат/Информация : Audio Coding 3
Расширение режима : CM (complete main)
Параметр Endianness формата : Big
Идентификатор кодека : A_AC3
Продолжительность : 1 ч. 30 м.
Вид битрейта : Постоянный
Битрейт : 448 Кбит/сек
Каналы : 6 каналов
Расположение каналов : Front: L C R, Side: L R, LFE
Частота : 48,0 КГц
Битовая глубина : 16 бит
Метод сжатия : С потерями
Размер потока : 290 Мбайт (13%)
Заголовок : Английский
Язык : English
Default : Нет
Forced : Нет
Текст
Идентификатор : 4
Формат : UTF-8
Идентификатор кодека : S_TEXT/UTF8
Идентификатор кодека/Информация : UTF-8 Plain Text
Заголовок : Русские
Язык : Russian
Default : Нет
Forced : Нет
Меню
00:00:00.000 : en:00:00:00.000
00:04:51.208 : en:00:04:51.208
00:07:21.733 : en:00:07:21.733
00:10:56.030 : en:00:10:56.030
00:15:36.894 : en:00:15:36.894
00:19:43.891 : en:00:19:43.891
00:25:45.252 : en:00:25:45.252
00:30:10.434 : en:00:30:10.434
00:35:32.797 : en:00:35:32.797
00:41:44.585 : en:00:41:44.585
00:45:44.742 : en:00:45:44.742
00:50:19.934 : en:00:50:19.934
00:55:56.770 : en:00:55:56.770
01:00:28.416 : en:01:00:28.416
01:05:59.914 : en:01:05:59.914
01:08:37.363 : en:01:08:37.363
01:11:52.600 : en:01:11:52.600
01:15:00.246 : en:01:15:00.246
01:18:52.311 : en:01:18:52.311
01:24:01.828 : en:01:24:01.828

Скриншот c названием фильма

Скриншоты

Возраст

18+ - зрителям, достигшим 18 лет
[Профиль] [ЛС]

Создавать темы 06-Авг-2015 22:31 (спустя 2 месяца 18 дней)

Топик был перенесен из форума Фильмы до 2014 года в форум Фильмы до 2012 года
sergej644
 
Показать сообщения:    

Текущее время: Сегодня 22:08

Часовой пояс: GMT



Вы не можете начинать темы
Вы не можете отвечать на сообщения
Вы не можете редактировать свои сообщения
Вы не можете удалять свои сообщения
Вы не можете голосовать в опросах
Вы не можете прикреплять файлы к сообщениям
Вы не можете скачивать файлы