Молния / Zipper (2015) BDRip 720p | L2

 
Автор Сообщение

BOSS ®

Пол:

Стаж: 2 года 1 месяц

Сообщений: 3735

Откуда: ODESSA



Награды: 20 (Подробнее)

Top Keeper 4 (Количество: 1) Top Seeder 5 (Количество: 1) Top Releaser 3 (Количество: 1)
Торрент-статистика

Создавать темы 05-Дек-2015 09:34

[Цитировать]

Информация о фильме
Название: Молния
Оригинальное название: Zipper
Год выхода: 2015
Жанр: триллер, драма
Режиссер: Мора Стивенс
В ролях: Патрик Уилсон, Лина Хиди, Рэй Уинстон, Ричард Дрейфусс, Джон Чо, Дианна Агрон, Кристофер МакДональд, Александра Брекенридж, Пенелопа Митчелл, Елена Сатине
О фильме: История о семьянине, который рискует потерять все, потому что не может подавить свою страсть к другим женщинам…

Выпущено: США / 33 Pictures, Cargo Entertainment, Protozoa Pictures
Продолжительность: 01:52:41
Озвучивание: Любительское (двухголосое) [Sunshine Studio]
Файл
Формат: MKV
Качество: BDRip 720p
Видео: MPEG-4 AVC, 4911 kb/s, 1280x534
Аудио: Russian: AC3, 192 kb/s (2 ch) / English: AC3, 640 kb/s (6 ch)
Субтитры: Russian [lucky_ann], English

MI

Format : Matroska
Format version : Version 2
File size : 4.61 GiB
Duration : 1h 52mn
Overall bit rate : 5 859 Kbps
Encoded date : UTC 2015-12-05 02:29:24
Writing application : mkvmerge v7.8.0 ('River Man') 32bit built on Apr 3 2015 12:11:22
Writing library : libebml v1.3.1 + libmatroska v1.4.2
Video
ID : 1
Format : AVC
Format/Info : Advanced Video Codec
Format profile : High@L4.1
Format settings, CABAC : Yes
Format settings, ReFrames : 12 frames
Codec ID : V_MPEG4/ISO/AVC
Duration : 1h 52mn
Bit rate : 4 911 Kbps
Width : 1 280 pixels
Height : 534 pixels
Display aspect ratio : 2.40:1
Frame rate mode : Constant
Frame rate : 23.976 fps
Color space : YUV
Chroma subsampling : 4:2:0
Bit depth : 8 bits
Scan type : Progressive
Bits/(Pixel*Frame) : 0.300
Stream size : 3.87 GiB (84%)
Writing library : x264 core 146 r2538kMod 121396c
Encoding settings : cabac=1 / ref=12 / deblock=1:-3:-3 / analyse=0x3:0x133 / me=umh / subme=10 / psy=1 / fade_compensate=0.00 / psy_rd=0.90:0.00 / mixed_ref=1 / me_range=24 / chroma_me=1 / trellis=2 / 8x8dct=1 / cqm=0 / deadzone=21,11 / fast_pskip=0 / chroma_qp_offset=-2 / threads=12 / lookahead_threads=2 / sliced_threads=0 / nr=0 / decimate=0 / interlaced=0 / bluray_compat=0 / constrained_intra=0 / fgo=0 / bframes=7 / b_pyramid=2 / b_adapt=2 / b_bias=0 / direct=3 / weightb=1 / open_gop=0 / weightp=2 / keyint=250 / keyint_min=23 / scenecut=40 / intra_refresh=0 / rc_lookahead=60 / rc=crf / mbtree=0 / crf=16.0000 / qcomp=0.65 / qpmin=0 / qpmax=69 / qpstep=4 / vbv_maxrate=62500 / vbv_bufsize=78125 / crf_max=0.0 / nal_hrd=none / filler=0 / ip_ratio=1.30 / pb_ratio=1.20 / aq=3:0.70 / zones=25,295,crf=15.5/316,459,crf=15.5/480,575,crf=15.5/3787,4027,crf=15.5/6907,7147,crf=15.5/7627,7893,crf=15.5/8133,8551,crf=15.5/57305,58265,crf=15.5/58899,59028,crf=15.5/68124,68164,crf=15.5
Language : English
Default : Yes
Forced : No
Color range : Limited
Matrix coefficients : BT.709
Audio #1
ID : 2
Format : AC-3
Format/Info : Audio Coding 3
Mode extension : CM (complete main)
Format settings, Endianness : Big
Codec ID : A_AC3
Duration : 1h 52mn
Bit rate mode : Constant
Bit rate : 192 Kbps
Channel(s) : 2 channels
Channel positions : Front: L R
Sampling rate : 48.0 KHz
Bit depth : 16 bits
Compression mode : Lossy
Stream size : 155 MiB (3%)
Language : Russian
Default : Yes
Forced : No
Audio #2
ID : 3
Format : AC-3
Format/Info : Audio Coding 3
Mode extension : CM (complete main)
Format settings, Endianness : Big
Codec ID : A_AC3
Duration : 1h 52mn
Bit rate mode : Constant
Bit rate : 640 Kbps
Channel(s) : 6 channels
Channel positions : Front: L C R, Side: L R, LFE
Sampling rate : 48.0 KHz
Bit depth : 16 bits
Compression mode : Lossy
Stream size : 516 MiB (11%)
Language : English
Default : No
Forced : No
Text #1
ID : 4
Format : UTF-8
Codec ID : S_TEXT/UTF8
Codec ID/Info : UTF-8 Plain Text
Language : Russian
Default : No
Forced : No
Text #2
ID : 5
Format : UTF-8
Codec ID : S_TEXT/UTF8
Codec ID/Info : UTF-8 Plain Text
Language : English
Default : No
Forced : No
Menu #1
00:00:00.000 : en:00:00:00.000
00:09:27.901 : en:00:09:27.901
00:21:03.804 : en:00:21:03.804
00:31:19.920 : en:00:31:19.920
00:41:02.043 : en:00:41:02.043
00:51:16.240 : en:00:51:16.240
00:57:31.031 : en:00:57:31.031
01:08:49.792 : en:01:08:49.792
01:18:48.098 : en:01:18:48.098
01:28:11.536 : en:01:28:11.536
01:39:16.784 : en:01:39:16.784
01:47:06.003 : en:01:47:06.003
Menu #2
00:00:00.054 : en:00:00:00.054

Скриншоты



[Профиль] [ЛС]
Показать сообщения:    

Текущее время: Сегодня 08:58

Часовой пояс: GMT



Вы не можете начинать темы
Вы не можете отвечать на сообщения
Вы не можете редактировать свои сообщения
Вы не можете удалять свои сообщения
Вы не можете голосовать в опросах
Вы не можете прикреплять файлы к сообщениям
Вы не можете скачивать файлы