Молния / Ширинка / Zipper (Мора Стивенс / Mora Stephens) [2015, США, Триллер, драма, BDRip] VO (Andi) + Original (Eng) + Subs (Rus, Eng)

 
Автор Сообщение

TorrentFilm ®

Пол:

Стаж: 2 года

Сообщений: 7741



Награды: Нет

Торрент-статистика

Создавать темы 11-Ноя-2015 00:13

[Цитировать]

Молния / Ширинка / Zipper
«Зачем рисковать»
- Год выпуска: 2015
Выпущено: США / 33 Pictures, Cargo Entertainment
Жанр: триллер, драма
Продолжительность: 01:52:41
Перевод: Одноголосый закадровый Andi
Cубтитры: Русские (lucky_ann), Английские (внешние .srt*)
Оригинальная аудиодорожка: Английская-Режиссер:
Мора Стивенс / Mora Stephens-В ролях:
Патрик Уилсон (Sam Ellis), Лина Хиди (Jeannie Ellis), Рэй Уинстон (Coaker), Ричард Дрейфусс (George Hiller), Джон Чо (EJ), Дианна Агрон (Dalia), Кристофер МакДональд (Peter Kirkland), Александра Брекенридж (Christy), Пенелопа Митчелл (Laci / Jennifer), Елена Сатине (Ellie Green)-Описание:
История о семьянине, который рискует потерять все, потому что не может подавить свою страсть к другим женщинам…-Релиз групп | | IMDB | КиноПоиск | Сэмпл |-Качество: BDRip [Zipper.2015.1080p.BluRay.AVC.TrueHD.5.1-RARBG]
Формат: AVI
Видео: 720x304 (2.37:1), 23.976 fps, XviD build 67 ~1463 kbps avg, 0.28 bit/pixel
Аудио #1: 48 kHz, AC3 Dolby Digital, 2/0 (L,R) ch, ~192 kbps avg (RUS)
Аудио #2: 48 kHz, AC3 Dolby Digital, 2/0 (L,R) ch, ~192 kbps avg (ENG)
-

Скриншоты

-

MediaInfo

Общее
Полное имя                               : D:\Zipper_2015_BDRip_by_Dalemake.avi
Формат                                   : AVI
Формат/Информация                        : Audio Video Interleave
Размер файла                             : 1,47 Гбайт
Продолжительность                        : 1 ч. 52 м.
Общий поток                              : 1862 Кбит/сек
Программа кодирования                    : VirtualDubMod 1.5.10.3 | www.virtualdub-fr.org || (build 2550/release)
Библиотека кодирования                   : VirtualDubMod build 2550/release
Видео
Идентификатор                            : 0
Формат                                   : MPEG-4 Visual
Профиль формата                          : Advanced Simple@L5
Параметр BVOP формата                    : 1
Параметр QPel формата                    : Нет
Параметр GMC формата                     : Без точки перехода
Параметр матрицы формата                 : Выборочная
Идентификатор кодека                     : XVID
Идентификатор кодека/Подсказка           : XviD
Продолжительность                        : 1 ч. 52 м.
Битрейт                                  : 1464 Кбит/сек
Ширина                                   : 720 пикселей
Высота                                   : 304 пикселя
Соотношение сторон                       : 2,35:1
Частота кадров                           : 23,976 кадра/сек
Цветовое пространство                    : YUV
Субдискретизация насыщенности            : 4:2:0
Битовая глубина                          : 8 бит
Тип развёртки                            : Прогрессивная
Метод сжатия                             : С потерями
Бит/(Пиксели*Кадры)                      : 0.279
Размер потока                            : 1,15 Гбайт (79%)
Библиотека кодирования                   : XviD 67
Аудио #1
Идентификатор                            : 1
Формат                                   : AC-3
Формат/Информация                        : Audio Coding 3
Расширение режима                        : CM (complete main)
Параметр Endianness формата              : Big
Идентификатор кодека                     : 2000
Продолжительность                        : 1 ч. 52 м.
Вид битрейта                             : Постоянный
Битрейт                                  : 192 Кбит/сек
Каналы                                   : 2 канала
Расположение каналов                     : Front: L R
Частота                                  : 48,0 КГц
Метод сжатия                             : С потерями
Размер потока                            : 155 Мбайт (10%)
Выравнивание                             : Разделение по промежуткам
Продолжительность промежутка             : 42  мс. (1,00 видеокадр)
Время предзагрузки промежутка            : 500  мс.
Аудио #2
Идентификатор                            : 2
Формат                                   : AC-3
Формат/Информация                        : Audio Coding 3
Расширение режима                        : CM (complete main)
Параметр Endianness формата              : Big
Идентификатор кодека                     : 2000
Продолжительность                        : 1 ч. 52 м.
Вид битрейта                             : Постоянный
Битрейт                                  : 192 Кбит/сек
Каналы                                   : 2 канала
Расположение каналов                     : Front: L R
Частота                                  : 48,0 КГц
Метод сжатия                             : С потерями
Размер потока                            : 155 Мбайт (10%)
Выравнивание                             : Разделение по промежуткам
Продолжительность промежутка             : 42  мс. (1,00 видеокадр)
Время предзагрузки промежутка            : 500  мс.
-
[Профиль] [ЛС]
Показать сообщения:    

Текущее время: Сегодня 00:48

Часовой пояс: GMT



Вы не можете начинать темы
Вы не можете отвечать на сообщения
Вы не можете редактировать свои сообщения
Вы не можете удалять свои сообщения
Вы не можете голосовать в опросах
Вы не можете прикреплять файлы к сообщениям
Вы не можете скачивать файлы