Молли и мопс / Molly & Mops (Титус Сельге / Titus Selge) [2007, Австрия, Германия, комедия, криминал, SATRip] MVO (ТПО "Ред Медиа")

 
Автор Сообщение

TorrentFilm ®

Пол:

Стаж: 2 года

Сообщений: 7741



Награды: Нет

Торрент-статистика

Создавать темы 17-Дек-2014 02:33

[Цитировать]

Молли и мопс / Molly & Mops
Страна: Австрия, Германия
Жанр: комедия, криминал
Год выпуска: 2007
Продолжительность: 01:26:58
Перевод: Профессиональный (многоголосый закадровый) ТПО "Ред Медиа"
Cубтитры: нет
Режиссер: Титус Сельге / Titus Selge
В ролях: Моника Терезия Райтхофер, Маттиас Шлоо, Атишех Ханна Браун, Моника Баумгартнер, Ферри Эллингер, Сисси Перлингер, Раймунд Валлиш, Андреас Паттон
Описание: Молли - талантливый кондитер, симпатичная, но не очень удачливая девушка. Она безумно комплексует из-за своего лишнего веса и всё невезение приписывает именно этому. Когда ее неожиданно бросает парень, Молли решает поменять свою жизнь и уехать за пределы родного городка. Но все не так легко, как кажется! В поезде хитрая монахиня крадет все ее деньги. В погоне за аферисткой, Молли встречает маленького мопса, который разговаривает с ней и подначивает на всякие рискованные поступки, но при этом поддерживает ее и, частенько, дает очень дельные советы. Слушая собачку, девушка находит работу, жилье и встречает симпатичного парня...
Доп. информация: Фильм записал alenavova
Релиз-первоисходник
Сэмпл: https://yadi.sk/i/55KVenaBcuo2y
Качество видео: SATRip by alenavova
Формат видео: AVI
Видео: 720x400 (1.80:1), 25 fps, XviD build 50 ~2049 kbps avg, 0.28 bit/pixel
Аудио: 48 kHz, AC3 Dolby Digital, 2/0 (L,R) ch, ~192 kbps

MediaInfo

Молли и мопс - Molly & Mops [by alenavova].avi
Format : AVI
Format/Info : Audio Video Interleave
File size : 1.37 GiB
Duration : 1h 26mn
Overall bit rate : 2 252 Kbps
Movie name : Молли и мопс - Molly & Mops [by alenavova]
Director : SATRip by alenavova
Writing application : VirtualDubMod 1.5.10.3 | www.virtualdub-fr.org || (build 2550/release)
Copyright : Edich2
Comment : RuTracker.org
Video
ID : 0
Format : MPEG-4 Visual
Format profile : Advanced Simple@L5
Format settings, BVOP : 2
Format settings, QPel : No
Format settings, GMC : No warppoints
Format settings, Matrix : Custom
Codec ID : XVID
Codec ID/Hint : XviD
Duration : 1h 26mn
Bit rate : 2 050 Kbps
Width : 720 pixels
Height : 400 pixels
Display aspect ratio : 16:9
Frame rate : 25.000 fps
Color space : YUV
Chroma subsampling : 4:2:0
Bit depth : 8 bits
Scan type : Progressive
Compression mode : Lossy
Bits/(Pixel*Frame) : 0.285
Stream size : 1.25 GiB (91%)
Writing library : XviD 1.2.1 (UTC 2008-12-04)
Audio
ID : 1
Format : AC-3
Format/Info : Audio Coding 3
Mode extension : CM (complete main)
Format settings, Endianness : Big
Codec ID : 2000
Duration : 1h 26mn
Bit rate mode : Constant
Bit rate : 192 Kbps
Channel(s) : 2 channels
Channel positions : Front: L R
Sampling rate : 48.0 KHz
Bit depth : 16 bits
Compression mode : Lossy
Stream size : 119 MiB (9%)
Alignment : Split accross interleaves
Interleave, duration : 40 ms (1.00 video frame)
Interleave, preload duration : 500 ms

Скриншоты


[Профиль] [ЛС]

Создавать темы 06-Авг-2015 22:54 (спустя 7 месяцев 20 дней)

Топик был перенесен из форума Фильмы до 2014 года в форум Фильмы до 2012 года
sergej644
 
Показать сообщения:    

Текущее время: Сегодня 06:08

Часовой пояс: GMT



Вы не можете начинать темы
Вы не можете отвечать на сообщения
Вы не можете редактировать свои сообщения
Вы не можете удалять свои сообщения
Вы не можете голосовать в опросах
Вы не можете прикреплять файлы к сообщениям
Вы не можете скачивать файлы