Молитвы за Бобби / Молитвы о Бобби / Prayers for Bobby (Рассел Малкэй (Малкэхи) / Russell Mulcahy) [2009, США, Драма, HDRip] DVO (Elrom)

 
Автор Сообщение

TorrentFilm ®

Пол:

Стаж: 2 года

Сообщений: 7741



Награды: Нет

Торрент-статистика

Создавать темы 30-Мар-2016 00:09

[Цитировать]

Молитвы за Бобби / Молитвы о Бобби / Prayers for Bobby- -Страна: США
Жанр: Драма
Продолжительность: 01:29:30
Год выпуска: 2009
-Перевод: Профессиональный (двухголосый, закадровый) | (Elrom)
Субтитры: нет
Режиссёр: Рассел Малкэй (Малкэхи) / Russell Mulcahy
-В ролях:
Сигурни Уивер, Генри Черни, Райан Келли, Дэн Батлер, Остин Николс, Карли Шредер, Шеннон Иген, Скотт Бэйли, Ребекка Луиз Миллер
-Описание:
Когда Мери Гриффит, набожная христианка, узнаёт, что её сын Бобби - гей, она, считая это грехом, полагает, что Бог может помочь ему, и призывает его молиться еще больше, искать утешения в церкви.
-Сэмпл: https://www.sendspace.com/file/qxgkit-Качество: HDRip - [url=viewtopic.php?t=4240471]Исходник[/url] (Спасибо Хакер 7)
Формат: AVI
Видео: 688x384 (1.79:1), 23.976 fps, XviD build 50 ~1024 kbps avg, 0.16 bit/pixel
Аудио: 48 kHz, MPEG Layer 3, 2 ch, ~128.00 kbps avg
-

Отчёт MediaInfo

General
Complete name : C:\Users\Максим\Desktop\Prayers.for Bobby.2009.HDRip.745.polkera.avi
Format : AVI
Format/Info : Audio Video Interleave
File size : 744 MiB
Duration : 1h 29mn
Overall bit rate : 1 162 Kbps
Writing application : VirtualDubMod 1.5.10.2 (build 2540/release)
Writing library : VirtualDubMod build 2540/release
Video
Format : MPEG-4 Visual
Format profile : Streaming Video@L1
Format settings, BVOP : Yes
Format settings, QPel : No
Format settings, GMC : No warppoints
Format settings, Matrix : Custom
Codec ID : XVID
Codec ID/Hint : XviD
Duration : 1h 29mn
Bit rate : 1 025 Kbps
Width : 688 pixels
Height : 384 pixels
Display aspect ratio : 16/9
Frame rate : 23.976 fps
Resolution : 24 bits
Colorimetry : 4:2:0
Scan type : Progressive
Bits/(Pixel*Frame) : 0.162
Stream size : 656 MiB (88%)
Writing library : XviD 1.2.1 (UTC 2008-12-04)
Audio
Format : MPEG Audio
Format version : Version 1
Format profile : Layer 3
Codec ID : 55
Codec ID/Hint : MP3
Duration : 1h 29mn
Bit rate mode : Constant
Bit rate : 128 Kbps
Channel(s) : 2 channels
Sampling rate : 48.0 KHz
Resolution : 16 bits
Stream size : 81.9 MiB (11%)
Alignment : Aligned on interleaves
Interleave, duration : 42 ms (1.00 video frame)
Interleave, preload duration : 504 ms
Writing library : LAME3.98r
Encoding settings : -m s -V 4 -q 2 -lowpass 17 -b 128

-

Скриншоты

-
[Профиль] [ЛС]

Создавать темы 12-Июн-2016 07:56 (спустя 2 месяца 13 дней)

Топик был перенесен из форума Фильмы 2011 года в форум Фильмы 2009 года
Russian Mafia
 
Показать сообщения:    

Текущее время: Сегодня 08:19

Часовой пояс: GMT



Вы не можете начинать темы
Вы не можете отвечать на сообщения
Вы не можете редактировать свои сообщения
Вы не можете удалять свои сообщения
Вы не можете голосовать в опросах
Вы не можете прикреплять файлы к сообщениям
Вы не можете скачивать файлы