Молитвы за Бобби / Молитвы о Бобби / Prayers for Bobby (Рассел Малкэй (Малкэхи) / Russell Mulcahy) [2009, США, Драма, HDRip] DVO (Elrom) + Original Eng + Sub (Rus, Eng)

 
Автор Сообщение

TorrentFilm ®

Пол:

Стаж: 2 года

Сообщений: 7741



Награды: Нет

Торрент-статистика

Создавать темы 29-Мар-2016 00:09

[Цитировать]

Молитвы за Бобби / Молитвы о Бобби / Prayers for Bobby- -Страна: США
Жанр: Драма
Продолжительность: 01:29:30
Год выпуска: 2009
-Перевод: Профессиональный (двухголосый, закадровый) | (Elrom)
Субтитры: руские, английские (полные, внешние, srt)
Режиссёр: Рассел Малкэй (Малкэхи) / Russell Mulcahy
-В ролях:
Сигурни Уивер, Генри Черни, Райан Келли, Дэн Батлер, Остин Николс, Карли Шредер, Шеннон Иген, Скотт Бэйли, Ребекка Луиз Миллер
-Описание:
Когда Мери Гриффит, набожная христианка, узнаёт, что её сын Бобби - гей, она, считая это грехом, полагает, что Бог может помочь ему, и призывает его молиться еще больше, искать утешения в церкви.
-Сэмпл: https://www.sendspace.com/file/8xnrpr-Качество: HDRip - [url=viewtopic.php?t=4240471]Исходник[/url] (Спасибо Хакер 7)
Формат: AVI
Видео: 720x400 (1.80:1), 23.976 fps, XviD build 50 ~1675 kbps avg, 0.24 bit/pixel
Аудио: 48 kHz, AC3 Dolby Digital, 2/0 (L,R) Surround Encoded ch, ~192 kbps | Rus
Аудио 2: 48 kHz, AC3 Dolby Digital, 3/2 (L,C,R,l,r) + LFE ch, ~448 kbps | Eng
-

Отчёт MediaInfo

General
Complete name : C:\Users\Максим\Desktop\Prayers.for Bobby.2009.HDRip.polkera\Prayers.for Bobby.2009.HDRip.polkera.avi
Format : AVI
Format/Info : Audio Video Interleave
File size : 1.46 GiB
Duration : 1h 29mn
Overall bit rate : 2 330 Kbps
Writing application : VirtualDubMod 1.5.10.2 (build 2540/release)
Writing library : VirtualDubMod build 2540/release
Video
Format : MPEG-4 Visual
Format profile : Streaming Video@L1
Format settings, BVOP : Yes
Format settings, QPel : No
Format settings, GMC : No warppoints
Format settings, Matrix : Custom
Codec ID : XVID
Codec ID/Hint : XviD
Duration : 1h 29mn
Bit rate : 1 677 Kbps
Width : 720 pixels
Height : 400 pixels
Display aspect ratio : 16/9
Frame rate : 23.976 fps
Resolution : 24 bits
Colorimetry : 4:2:0
Scan type : Progressive
Bits/(Pixel*Frame) : 0.243
Stream size : 1.05 GiB (72%)
Writing library : XviD 1.2.1 (UTC 2008-12-04)
Audio #1
Format : AC-3
Format/Info : Audio Coding 3
Format profile : Dolby Digital
Codec ID : 2000
Duration : 1h 29mn
Bit rate mode : Constant
Bit rate : 192 Kbps
Channel(s) : 2 channels
Channel positions : L R
Sampling rate : 48.0 KHz
Stream size : 123 MiB (8%)
Alignment : Aligned on interleaves
Interleave, duration : 42 ms (1.00 video frame)
Interleave, preload duration : 512 ms
Audio #2
Format : AC-3
Format/Info : Audio Coding 3
Codec ID : 2000
Duration : 1h 29mn
Bit rate mode : Constant
Bit rate : 448 Kbps
Channel(s) : 6 channels
Channel positions : Front: L C R, Surround: L R, LFE
Sampling rate : 48.0 KHz
Stream size : 287 MiB (19%)
Alignment : Split accross interleaves
Interleave, duration : 42 ms (1.00 video frame)
Interleave, preload duration : 500 ms

-

Скриншоты

-
[Профиль] [ЛС]

Создавать темы 12-Июн-2016 07:56 (спустя 2 месяца 14 дней)

Топик был перенесен из форума Фильмы 2011 года в форум Фильмы 2009 года
Russian Mafia
 
Показать сообщения:    

Текущее время: Сегодня 12:35

Часовой пояс: GMT



Вы не можете начинать темы
Вы не можете отвечать на сообщения
Вы не можете редактировать свои сообщения
Вы не можете удалять свои сообщения
Вы не можете голосовать в опросах
Вы не можете прикреплять файлы к сообщениям
Вы не можете скачивать файлы