Мой парень – киллер / Mr. Right (2015) WEB-DL 1080p | L

 
Автор Сообщение

достали все ®

Пол:

Стаж: 1 год 8 месяцев

Сообщений: 6565



Награды: 12 (Подробнее)

Top Releaser 4 (Количество: 1) Mega Seeder 5 (Количество: 1) Top Releaser 3 (Количество: 1)
Торрент-статистика

Создавать темы 16-Апр-2016 02:56

[Цитировать]

Информация о фильме
Название: Мой парень – киллер
Оригинальное название: Mr. Right
Год выпуска: 2015
Страна: США
Жанр: боевик, мелодрама, комедия-Перевод: Любительский многоголосый [RecentFilms]
Примечание: релиз без рекламы
Субтитры: английские (Full)
Продолжительность: 01:35:24-Режиссер: Пако Кабесас
В ролях: Сэм Рокуэлл (Mr. Right / Francis), Анна Кендрик (Martha McKay), Тим Рот (Hopper / Reynolds), Джеймс Рэнсон (Von Cartigan), Энсон Маунт (Richard Cartigan), Майкл Эклунд (Johnny Moon), RZA (Shotgun Steve), Кэти Нехра (Sophie), Джейден Кейн (Bruce), Дуглас М. Гриффин (Gus Patrick), Луис Да Силва мл. (Espinoza), Елена Санчес (Dison)-Описание:
Марта застала своего парня за изменой и немного вышла из колеи. И тут она встречает, казалось бы, идеального мужчину. Но её идеал оказывается бывшим киллером, и его прошлое однажды вновь заявляет о себе, причем не самым приятным образом. И едва зародившиеся отношения начинают подвергаться серьёзным испытаниям.-Рейтинг:

MPAA: R - Лицам до 17 лет обязательно присутствие взрослого-Качество: WEB-DL 1080p
Формат: MKV
Видео: AVC, 1916x796 (2.40:1), 4429 kbps, 23,976 fps, 0,121 bpp
Аудио №1: русский / AC3 / 2.0 / 48 kHz / 192 kbps / 16 bit |[RecentFilms|
Аудио №2: английский / AC3 / 5.1 / 48 kHz / 384 kbps / 16 bit
Навигация по главам: есть
Семпл-

ОтчетМедиаИнфо

General
Unique ID : 186273043284266747772730188262262459666 (0x8C22E218B22C680AA83DFC9DE7C04D12)
Complete name : H:Mr.Right.2015.1080p.WEB-DL.mkv
Format : Matroska
Format version : Version 4 / Version 2
File size : 3.40 GiB
Duration : 1h 35mn
Overall bit rate : 5 107 Kbps
Movie name : Mr.Right.2015.1080p.WEB-DL.DD5.1.H264
Encoded date : UTC 2016-04-15 19:46:42
Writing application : mkvmerge v9.0.1 ('Obstacles') 64bit
Writing library : libebml v1.3.3 + libmatroska v1.4.4
DURATION : 01:27:42.389000000
NUMBER_OF_FRAMES : 1420
NUMBER_OF_BYTES : 51425
_STATISTICS_WRITING_APP : mkvmerge v9.0.1 ('Obstacles') 64bit
_STATISTICS_WRITING_DATE_UTC : 2016-04-15 19:46:42
_STATISTICS_TAGS : BPS DURATION NUMBER_OF_FRAMES NUMBER_OF_BYTES
Video
ID : 1
Format : AVC
Format/Info : Advanced Video Codec
Format profile : High@L4.0
Format settings, CABAC : Yes
Format settings, ReFrames : 5 frames
Codec ID : V_MPEG4/ISO/AVC
Duration : 1h 35mn
Bit rate : 4 430 Kbps
Width : 1 916 pixels
Height : 796 pixels
Display aspect ratio : 2.40:1
Frame rate : 23.976 fps
Color space : YUV
Chroma subsampling : 4:2:0
Bit depth : 8 bits
Scan type : Progressive
Bits/(Pixel*Frame) : 0.121
Stream size : 2.95 GiB (87%)
Title : Mr.Right.2015.1080p.WEB-DL.DD5.1.H264
Language : English
Default : Yes
Forced : No
Color primaries : BT.709-5, BT.1361, IEC 61966-2-4, SMPTE RP177
Transfer characteristics : BT.709-5, BT.1361
Matrix coefficients : BT.709-5, BT.1361, IEC 61966-2-4 709, SMPTE RP177
Audio #1
ID : 2
Format : AC-3
Format/Info : Audio Coding 3
Mode extension : CM (complete main)
Codec ID : A_AC3
Duration : 1h 35mn
Bit rate mode : Constant
Bit rate : 192 Kbps
Channel(s) : 2 channels
Channel positions : Front: L R
Sampling rate : 48.0 KHz
Bit depth : 16 bits
Compression mode : Lossy
Stream size : 131 MiB (4%)
Title : MVO [RecentFilms]
Language : Russian
Default : Yes
Forced : No
Audio #2
ID : 3
Format : AC-3
Format/Info : Audio Coding 3
Mode extension : CM (complete main)
Codec ID : A_AC3
Duration : 1h 35mn
Bit rate mode : Constant
Bit rate : 384 Kbps
Channel(s) : 6 channels
Channel positions : Front: L C R, Side: L R, LFE
Sampling rate : 48.0 KHz
Bit depth : 16 bits
Compression mode : Lossy
Stream size : 262 MiB (8%)
Title : Оригинал
Language : English
Default : No
Forced : No
Text
ID : 4
Format : UTF-8
Codec ID : S_TEXT/UTF8
Codec ID/Info : UTF-8 Plain Text
Title : Full
Language : English
Default : No
Forced : No
Menu
00:00:00.000 : en:1
00:04:39.000 : en:2
00:08:27.000 : en:3
00:11:42.000 : en:4
00:15:50.000 : en:5
00:19:01.000 : en:6
00:23:37.000 : en:7
00:27:31.000 : en:8
00:33:53.000 : en:9
00:39:13.000 : en:10
00:44:01.000 : en:11
00:46:11.000 : en:12
00:51:58.000 : en:13
00:56:41.000 : en:14
00:59:25.000 : en:15
01:04:26.000 : en:16
01:10:18.000 : en:17
01:16:42.000 : en:18
01:22:25.000 : en:19
01:28:04.000 : en:20

Скриншоты

[Профиль] [ЛС]
Кто просматривает тему:

Показать сообщения:    

Текущее время: Сегодня 22:09

Часовой пояс: GMT



Вы не можете начинать темы
Вы не можете отвечать на сообщения
Вы не можете редактировать свои сообщения
Вы не можете удалять свои сообщения
Вы не можете голосовать в опросах
Вы не можете прикреплять файлы к сообщениям
Вы не можете скачивать файлы