Мой парень – киллер / Mr. Right (2015) WEB-DL 1080p | L

 
Автор Сообщение

Russian Mafia ®

Пол:

Стаж: 1 год 8 месяцев

Сообщений: 4256



Награды: 10 (Подробнее)

Top Releaser 3 (Количество: 1) Mega Seeder 4 (Количество: 1) За внесенный вклад в развитие сайта (Количество: 1)
Торрент-статистика

Создавать темы 12-Апр-2016 11:46

[Цитировать]

Информация о фильме
Название: Мой парень – киллер
Оригинальное название: Mr. Right
Год выхода: 2015
Жанр: Боевик, Комедия, Мелодрама
Режиссер: Пако Кабесас
В ролях: Анна Кендрик, Тим Рот, Сэм Рокуэлл, Энсон Маунт, Джеймс Рэнсон, Ризза, Майкл Эклунд, Луис Да Силва мл., Елена Санчес, Сэм Медина, Венди МакКольм, Келли Коннолли, Мэтт Кук, Пако Кабесас
О фильме:
Кендрик сыграет женщину, которой очень не везло с мужчинами. И, конечно, она несказанно радуется, когда ей попадается парень, подходящий по всем параметрам. Но тут начинаются проблемы. Ее идеал оказывается бывшим киллером, и его прошлое однажды вновь заявляет о себе, причем не самым приятным образом. И едва зародившиеся отношения начинают подвергаться серьезным испытаниям…
Страна: США
Студия: 3311 Productions, Amasia Entertainment, Circle of Confusion
Продолжительность: 01:35:24
Перевод: Любительский многоголосый (RecentFilms)
Файл
Кодек: x264
Качество: WEB-DL 1080p
Видео: MPEG-4 AVC, 4430 Кбит/с, 1916x796, 23.976 кадр/с
Звук:
Аудио #1: AC3, 2 ch, 192 Кбит/с | Русский
Аудио #2: AC3, 6 ch, 384 Кбит/с | Английский
Субтитры: Английские

MI

Общее
Уникальный идентификатор : 179737113184558784027249826729953038151 (0x87381BDCEFF433A38A92311EB5CB8F47)
Полное имя : Mr.Right.2015.1080p.WEB-DL.mkv
Формат : Matroska
Версия формата : Version 4 / Version 2
Размер файла : 3,40 Гбайт
Продолжительность : 1 ч. 35 м.
Общий поток : 5107 Кбит/сек
Название фильма : Mr.Right.2015.1080p.WEB-DL.DD5.1.H264-FGT
Дата кодирования : UTC 2016-04-12 05:33:58
Программа кодирования : mkvmerge v7.7.0 ('Six Voices') 32bit built on Feb 28 2015 23:23:00
Библиотека кодирования : libebml v1.3.1 + libmatroska v1.4.2
Attachements : cover_land.jpg / small_cover.jpg / small_cover_land.jpg / cover.jpg
DURATION : 01:35:24.384000000
NUMBER_OF_FRAMES : 178887
NUMBER_OF_BYTES : 137385216
_STATISTICS_WRITING_APP : mkvmerge v7.7.0 ('Six Voices') 32bit built on Feb 28 2015 23:23:00
_STATISTICS_WRITING_DATE_UTC : 2016-04-12 05:33:58
_STATISTICS_TAGS : BPS DURATION NUMBER_OF_FRAMES NUMBER_OF_BYTES
Видео
Идентификатор : 1
Формат : AVC
Формат/Информация : Advanced Video Codec
Профиль формата : High@L4
Параметр CABAC формата : Да
Параметр ReFrames формата : 5 кадров
Идентификатор кодека : V_MPEG4/ISO/AVC
Продолжительность : 1 ч. 35 м.
Битрейт : 4430 Кбит/сек
Ширина : 1916 пикселей
Высота : 796 пикселей
Соотношение сторон : 2,40:1
Режим частоты кадров : Постоянный
Частота кадров : 23,976 кадра/сек
Цветовое пространство : YUV
Субдискретизация насыщенности : 4:2:0
Битовая глубина : 8 бит
Тип развёртки : Прогрессивная
Бит/(Пиксели*Кадры) : 0.121
Размер потока : 2,95 Гбайт (87%)
Заголовок : Mr.Right.2015.1080p.WEB-DL.DD5.1.H264-FGT
Язык : English
Default : Да
Forced : Нет
Цветовой диапазон : Limited
Основные цвета : BT.709
Характеристики трансфера : BT.709
Коэффициенты матрицы : BT.709
Аудио #1
Идентификатор : 2
Формат : AC-3
Формат/Информация : Audio Coding 3
Расширение режима : CM (complete main)
Параметр Endianness формата : Big
Идентификатор кодека : A_AC3
Продолжительность : 1 ч. 35 м.
Вид битрейта : Постоянный
Битрейт : 192 Кбит/сек
Каналы : 2 канала
Расположение каналов : Front: L R
Частота : 48,0 КГц
Метод сжатия : С потерями
Размер потока : 131 Мбайт (4%)
Язык : Russian
Default : Да
Forced : Нет
Аудио #2
Идентификатор : 3
Формат : AC-3
Формат/Информация : Audio Coding 3
Расширение режима : CM (complete main)
Параметр Endianness формата : Big
Идентификатор кодека : A_AC3
Продолжительность : 1 ч. 35 м.
Вид битрейта : Постоянный
Битрейт : 384 Кбит/сек
Каналы : 6 каналов
Расположение каналов : Front: L C R, Side: L R, LFE
Частота : 48,0 КГц
Метод сжатия : С потерями
Размер потока : 262 Мбайт (8%)
Заголовок : Mr.Right.2015.1080p.WEB-DL.DD5.1.H264-FGT
Язык : English
Default : Нет
Forced : Нет
Текст
Идентификатор : 4
Формат : UTF-8
Идентификатор кодека : S_TEXT/UTF8
Идентификатор кодека/Информация : UTF-8 Plain Text
Язык : English
Default : Да
Forced : Нет
Меню
00:00:00.000 : en:1
00:04:39.000 : en:2
00:08:27.000 : en:3
00:11:42.000 : en:4
00:15:50.000 : en:5
00:19:01.000 : en:6
00:23:37.000 : en:7
00:27:31.000 : en:8
00:33:53.000 : en:9
00:39:13.000 : en:10
00:44:01.000 : en:11
00:46:11.000 : en:12
00:51:58.000 : en:13
00:56:41.000 : en:14
00:59:25.000 : en:15
01:04:26.000 : en:16
01:10:18.000 : en:17
01:16:42.000 : en:18
01:22:25.000 : en:19
01:28:04.000 : en:20

Скриншоты

[Профиль] [ЛС]
Кто просматривает тему:

Показать сообщения:    

Текущее время: Сегодня 22:31

Часовой пояс: GMT



Вы не можете начинать темы
Вы не можете отвечать на сообщения
Вы не можете редактировать свои сообщения
Вы не можете удалять свои сообщения
Вы не можете голосовать в опросах
Вы не можете прикреплять файлы к сообщениям
Вы не можете скачивать файлы