Мой маленький пони: Девочки из Эквестрии Радужный рок / My Little Pony: Equestria Girls Rainbow Rocks (2014) WEB-DLRip

 
Автор Сообщение

sergej644 ®

Пол:

Стаж: 4 года 11 месяцев

Сообщений: 6042

Откуда: Soviet Union



Награды: Нет

Торрент-статистика

Создавать темы 02-Ноя-2014 18:38

[Цитировать]

- Мой маленький пони: Девочки из Эквестрии Радужный рок / My Little Pony: Equestria Girls Rainbow Rocks (2014) WEB-DLRip -i]Русское название: Мой маленький пони: Девочки из Эквестрии Радужный рок
Оригинальное название: My Little Pony: Equestria Girls Rainbow Rocks
Год выпуска: 2014
Жанр: Мультфильм, фэнтези, детский, семейный, приключения, полнометражный
Выпущено: США, Канада, Hasbro Studios
Описание:
В школе Кантерлот Хай состоится музыкальное представление, в котором решают поучаствовать Рэйнбоу Дэш, Эпплджек, Пинки Пай, Рэрити и Флаттершай со своей новой группой — «The Rainbooms». Но когда на сцене появляется новая группа девочек с броским названием «The Dazzlings», всё очень быстро превращается из дружеского состязания в настоящую Битву Групп. В то время как между противниками нарастает напряжение, исправившаяся Сансет Шиммер узнаёт, что девочки из группы «The Dazzlings» вовсе не так просты, как могут показаться, и преследуют цели куда более зловещие, чем завоевание титула Лучшей Группы Кантерлот Хай. «The Rainbooms» обращаются за помощью к Принцессе Твайлайт, чтобы та вернулась в их мир и помогла сотворить музыкальное контр-заклинание, способное помочь им в битве, которая определит дальнейшую судьбу всей школы.
Режиссер: Джэйсон Тиссен, Иши Руделл
Актеры: Тара Стронг, Эшли Болл, Андреа Либман, Табита Сен-Жермен, Кэти Уэслак, Николь Оливер
Субтитры: Русские (TheDoctor Team и Anon2anon), английские – отдельными файлами, отключаемые
Перевод: Дублированный (иногда в песнях слышатся оригинальные голоса!), любительский одноголосый (Трина Дубовицкая)
Продолжительность: 01:13:19
Видеокодек: Xvid
Битрейт видео: ~1905 Кбит/сек
Размер кадра: 720 x 400
Качество видео: WEB-DLRip
Аудио (русский 1): AC3, 2 ch, 192 Кбит/с - Дублированный
Аудио (русский 2): AC3, 6 ch, 384 Кбит/с - любительский одноголосый (Трина Дубовицкая)
Аудио (английский): AC3, 6 ch, 384 Кбит/с
Битрейт аудио: 192 Кбит/сек-

MediaInfo:

Общее
Полное имя : D:\My Little Pony Equestria Girls Rainbow Rocks WEB-DLRip.1.Anon2anon.rus.ass
Размер файла : 126 Кбайт
Общее
Полное имя : D:\My Little Pony Equestria Girls Rainbow Rocks WEB-DLRip.2.Anon2anon.eng.ass
Размер файла : 101 Кбайт
Общее
Полное имя : D:\My Little Pony Equestria Girls Rainbow Rocks WEB-DLRip.avi
Формат : AVI
Формат/Информация : Audio Video Interleave
Размер файла : 1,48 Гбайт
Продолжительность : 1 ч. 13 м.
Общий поток : 2884 Кбит/сек
Название фильма : My Little Pony Equestria Girls Rainbow Rocks WEB-DLRip (Rip by nblaaa)
Программа кодирования : VirtualDubModRus 1.5.10.2 (build 2542/release)
Библиотека кодирования : VirtualDubMod build 2542/release
Видео
Идентификатор : 0
Формат : MPEG-4 Visual
Профиль формата : Advanced Simple@L5
Параметр BVOP формата : Нет
Параметр QPel формата : Нет
Параметр GMC формата : Без точки перехода
Параметр матрицы формата : Default (H.263)
Идентификатор кодека : XVID
Идентификатор кодека/Подсказка : XviD
Продолжительность : 1 ч. 13 м.
Битрейт : 1905 Кбит/сек
Ширина : 720 пикселей
Высота : 400 пикселей
Соотношение сторон : 16:9
Частота кадров : 23,976 кадра/сек
Цветовое пространство : YUV
Субдискретизация насыщенности : 4:2:0
Битовая глубина : 8 бит
Тип развёртки : Прогрессивная
Метод сжатия : С потерями
Бит/(Пиксели*Кадры) : 0.276
Размер потока : 999 Мбайт (66%)
Библиотека кодирования : XviD 1.2.1 (UTC 2008-12-04)
Аудио #1
Идентификатор : 1
Формат : AC-3
Формат/Информация : Audio Coding 3
Расширение режима : CM (complete main)
Параметр Endianness формата : Big
Идентификатор кодека : 2000
Продолжительность : 1 ч. 13 м.
Вид битрейта : Постоянный
Битрейт : 192 Кбит/сек
Каналы : 2 канала
Расположение каналов : Front: L R
Частота : 44,1 КГц
Битовая глубина : 16 бит
Метод сжатия : С потерями
Задержка видео : 20 мс.
Размер потока : 101 Мбайт (7%)
Выравнивание : Разделение по промежуткам
Продолжительность промежутка : 42 мс. (1,00 видеокадр)
Время предзагрузки промежутка : 500 мс.
Заголовок : Gala Voices (ДБ)
Язык : Russian
Аудио #2
Идентификатор : 2
Формат : AC-3
Формат/Информация : Audio Coding 3
Расширение режима : CM (complete main)
Параметр Endianness формата : Big
Идентификатор кодека : 2000
Продолжительность : 1 ч. 13 м.
Вид битрейта : Постоянный
Битрейт : 384 Кбит/сек
Каналы : 6 каналов
Расположение каналов : Front: L C R, Side: L R, LFE
Частота : 48,0 КГц
Битовая глубина : 16 бит
Метод сжатия : С потерями
Размер потока : 201 Мбайт (13%)
Выравнивание : Разделение по промежуткам
Продолжительность промежутка : 42 мс. (1,00 видеокадр)
Время предзагрузки промежутка : 500 мс.
Заголовок : Трина Дубовицкая (ЛО)
Аудио #3
Идентификатор : 3
Формат : AC-3
Формат/Информация : Audio Coding 3
Расширение режима : CM (complete main)
Параметр Endianness формата : Big
Идентификатор кодека : 2000
Продолжительность : 1 ч. 13 м.
Вид битрейта : Постоянный
Битрейт : 384 Кбит/сек
Каналы : 6 каналов
Расположение каналов : Front: L C R, Side: L R, LFE
Частота : 48,0 КГц
Битовая глубина : 16 бит
Метод сжатия : С потерями
Размер потока : 201 Мбайт (13%)
Выравнивание : Разделение по промежуткам
Продолжительность промежутка : 42 мс. (1,00 видеокадр)
Время предзагрузки промежутка : 500 мс.
Заголовок : Оригинал
Общее
Полное имя : D:\My Little Pony Equestria Girls Rainbow Rocks WEB-DLRip.TheDoctor Team.ass
Размер файла : 152 Кбайт
Скриншоты: --
[Профиль] [ЛС]
Кто просматривает тему:

Показать сообщения:    

Текущее время: Сегодня 18:16

Часовой пояс: GMT



Вы не можете начинать темы
Вы не можете отвечать на сообщения
Вы не можете редактировать свои сообщения
Вы не можете удалять свои сообщения
Вы не можете голосовать в опросах
Вы не можете прикреплять файлы к сообщениям
Вы не можете скачивать файлы