Мой личный лось (Леонид Шмельков) [2013, мультфильм для взрослых, WEBRip-AVC]

 
Автор Сообщение

TorrentFilm ®

Пол:

Стаж: 2 года

Сообщений: 7741



Награды: Нет

Торрент-статистика

Создавать темы 15-Мар-2015 00:02

[Цитировать]

Мой личный лось
Страна: Россия
Жанр: мультфильм для взрослых
Продолжительность: 00:16:31
Год выпуска: 2013
Режиссёр: Леонид Шмельков
Описание: Тихий, застенчивый мальчик Миша проводит выходные вместе со своим папой. У Миши есть мечта: он хочет повстречать настоящего живого лося. Лось где-то рядом, но мальчику всё не удаётся его увидеть.
Потом Миша вырастает в тихого, застенчивого мужчину. Кажется, его детская мечта всё же должна осуществиться...
Доп. информация:
Лучшая короткометражка программы "Generation Kplus" - Берлинский фестиваль (2014)
Лучшие анимационный фильм - Фестиваль студенческих фильмов "Святая Анна" (2014)
Специальный приз жюри - Фестиваль российского кино "Окно в Европу" (2014)
Приз фестивальной аудитории - Фестиваль анимации "Fantoche" (2014)
Второе место в категории "Премьера" - Большой фестиваль мультфильмов (2014)
Лучший анимационный фильм года - Премия кинокритики "Белый слон" (2014)
Качество: WEBRip-AVC
Формат: MP4
Видео: 1396 kbps, 1280х720 (4:3), 25.000 fps, AVC (High@L3.1)
Аудио: Аудио: 192 kbps, 44.1 kHz, 2 channels, AAC (LC)
Субтитры: отсутствуют

Подробные технические данные

GeneralComplete name : Мой личный лось (2013).mp4Format : MPEG-4Format profile : Base Media / Version 2Codec ID : mp42File size : 188 MiBDuration : 16mn 31sOverall bit rate mode : VariableOverall bit rate : 1 590 KbpsEncoded date : UTC 2015-02-09 05:53:30Tagged date : UTC 2015-02-09 05:53:30gsst : 0gstd : 991096gssd : B4A7D6E04HH1425577097971338gshh : r4---sn-n8v7lnez.googlevideo.com
VideoID : 1Format : AVCFormat/Info : Advanced Video CodecFormat profile : High@L3.1Format settings, CABAC : YesFormat settings, ReFrames : 1 frameFormat settings, GOP : M=1, N=60Codec ID : avc1Codec ID/Info : Advanced Video CodingDuration : 16mn 31sBit rate : 1 396 KbpsMaximum bit rate : 4 616 KbpsWidth : 1 280 pixelsHeight : 720 pixelsDisplay aspect ratio : 16:9Frame rate mode : ConstantFrame rate : 25.000 fpsColor space : YUVChroma subsampling : 4:2:0Bit depth : 8 bitsScan type : ProgressiveBits/(Pixel*Frame) : 0.061Stream size : 165 MiB (88%)Tagged date : UTC 2015-02-09 05:53:36
AudioID : 2Format : AACFormat/Info : Advanced Audio CodecFormat profile : LCCodec ID : 40Duration : 16mn 31sBit rate mode : VariableBit rate : 192 KbpsMaximum bit rate : 202 KbpsChannel(s) : 2 channelsChannel positions : Front: L RSampling rate : 44.1 KHzCompression mode : LossyStream size : 22.7 MiB (12%)Title : IsoMedia File Produced by Google, 5-11-2011Encoded date : UTC 2015-02-09 05:53:34Tagged date : UTC 2015-02-09 05:53:36

Скриншоты

[Профиль] [ЛС]
Кто просматривает тему:

Показать сообщения:    

Текущее время: Сегодня 03:07

Часовой пояс: GMT



Вы не можете начинать темы
Вы не можете отвечать на сообщения
Вы не можете редактировать свои сообщения
Вы не можете удалять свои сообщения
Вы не можете голосовать в опросах
Вы не можете прикреплять файлы к сообщениям
Вы не можете скачивать файлы