Мой ласковый и нежный зверь (Эмиль Лотяну) [1978, СССР, Германия (ФРГ), драма, мелодрама, история, BDRip 720p]

 
Автор Сообщение

TorrentFilm ®

Пол:

Стаж: 2 года

Сообщений: 7741



Награды: Нет

Торрент-статистика

Создавать темы 01-Янв-2016 00:08

[Цитировать]

Мой ласковый и нежный зверь Выпущено: СССР - Германия (ФРГ), Inter Allianz Film - Мосфильм - Satra - Совэкспортфильм
Жанр: драма, мелодрама, история
Год выпуска: 1978
Продолжительность: 01:47:55
Перевод: не требуется
Cубтитры: отсутствуют
Режиссер: Эмиль Лотяну
В ролях: Галина Беляева, Олег Янковский, Кирилл Лавров, Леонид Марков, Светлана Тома, Григоре Григориу, Василий Симчич, Олегар Федоро, Александр Звенигорский, Анна Петрова
Описание: Юная Оленька родилась и выросла в бедной семье, поэтому вынуждена выйти замуж за богатого, но нелюбимого человека, который, к тому же, гораздо старше ее. Но сердцу не прикажешь, и страстная любовь вдруг настигает девушку - вот только любящий ее человек не может смириться с тем, что она отдана другому...
Тип релиза: BDRip 720p [scoldpadda] - сэмпл
Контейнер: MKV
Видео: x264, NTSC 23.976, 1160x720, 5100 кбит/с
Аудио 1: русский, AC3 5.1, 48 кГц, 640 кбит/с
Аудио 2: русский, AC3 1.0, 48 кГц, 320 кбит/с

Релиз группы:

MediaInfo:

General
Unique ID : 208728715893465232109188726211801635411 (0x9D07B03C3ED3743482E3F214DDD1DA53)
Complete name : D:\torrentfilm.net\Мой ласковый и нежный зверь (1978) BDRip 720p [scoldpadda].mkv
Format : Matroska
Format version : Version 2
File size : 4.57 GiB
Duration : 1h 47mn
Overall bit rate : 6 063 Kbps
Encoded date : UTC 2012-09-25 19:58:35
Writing application : mkvmerge v5.2.1 ('A Far Off Place') built on Jan 2 2012 23:21:10
Writing library : libebml v1.2.3 + libmatroska v1.3.0
Video
ID : 1
Format : AVC
Format/Info : Advanced Video Codec
Format profile : High@L4.1
Format settings, CABAC : Yes
Format settings, ReFrames : 9 frames
Codec ID : V_MPEG4/ISO/AVC
Duration : 1h 47mn
Bit rate : 5 100 Kbps
Width : 1 160 pixels
Height : 720 pixels
Display aspect ratio : 1.611
Frame rate mode : Constant
Frame rate : 23.976 fps
Color space : YUV
Chroma subsampling : 4:2:0
Bit depth : 8 bits
Scan type : Progressive
Bits/(Pixel*Frame) : 0.255
Stream size : 3.76 GiB (82%)
Writing library : x264 core 128 r2216kMod 198a7ea
Encoding settings : cabac=1 / ref=9 / deblock=1:-2:-2 / analyse=0x3:0x113 / me=umh / subme=11 / psy=1 / fade_compensate=0.00 / psy_rd=1.10:0.10 / mixed_ref=1 / me_range=24 / chroma_me=1 / trellis=2 / 8x8dct=1 / cqm=0 / deadzone=21,11 / fast_pskip=0 / chroma_qp_offset=-3 / threads=3 / lookahead_threads=1 / sliced_threads=0 / nr=0 / decimate=0 / interlaced=0 / bluray_compat=0 / constrained_intra=0 / bframes=7 / b_pyramid=2 / b_adapt=2 / b_bias=0 / direct=3 / weightb=1 / open_gop=0 / weightp=2 / keyint=250 / keyint_min=23 / scenecut=40 / intra_refresh=0 / rc=2pass / mbtree=0 / bitrate=5100 / ratetol=1.0 / qcomp=0.70 / qpmin=0 / qpmax=69 / qpstep=4 / cplxblur=20.0 / qblur=0.5 / ip_ratio=1.40 / pb_ratio=1.30 / aq=3:0.70
Default : Yes
Forced : No
Audio #1
ID : 2
Format : AC-3
Format/Info : Audio Coding 3
Mode extension : CM (complete main)
Format settings, Endianness : Big
Codec ID : A_AC3
Duration : 1h 47mn
Bit rate mode : Constant
Bit rate : 640 Kbps
Channel(s) : 6 channels
Channel positions : Front: L C R, Side: L R, LFE
Sampling rate : 48.0 KHz
Bit depth : 16 bits
Compression mode : Lossy
Stream size : 494 MiB (11%)
Language : Russian
Default : Yes
Forced : No
Audio #2
ID : 3
Format : AC-3
Format/Info : Audio Coding 3
Mode extension : CM (complete main)
Format settings, Endianness : Big
Codec ID : A_AC3
Duration : 1h 47mn
Bit rate mode : Constant
Bit rate : 320 Kbps
Channel(s) : 1 channel
Channel positions : Front: C
Sampling rate : 48.0 KHz
Bit depth : 16 bits
Compression mode : Lossy
Stream size : 247 MiB (5%)
Language : Russian
Default : No
Forced : No

Скриншоты:

[Профиль] [ЛС]
Кто просматривает тему:

Показать сообщения:    

Текущее время: Сегодня 22:11

Часовой пояс: GMT



Вы не можете начинать темы
Вы не можете отвечать на сообщения
Вы не можете редактировать свои сообщения
Вы не можете удалять свои сообщения
Вы не можете голосовать в опросах
Вы не можете прикреплять файлы к сообщениям
Вы не можете скачивать файлы