Мой король / Mon roi (2015) WEB-DL 720p | P

 
Автор Сообщение

достали все ®

Пол:

Стаж: 1 год 8 месяцев

Сообщений: 6520



Награды: 12 (Подробнее)

Top Releaser 3 (Количество: 1) Mega Releaser 1 (Количество: 1) Mega Seeder 1 (Количество: 1)
Торрент-статистика

Создавать темы 24-Фев-2016 15:35

[Цитировать]

Информация о фильме
Название: Мой король
Оригинальное название: Mon roi
Год выхода: 2015
Жанр: драма, мелодрама
Режиссер: Майвенн Ле Беско
В ролях: Венсан Кассель, Эмманюэль Берко, Луи Гаррель, Изильд Ле Беско, Кристель Сэйнт Луис Огустен, Патрик Рейналь, Ян Говен, Поль Ами, Джамел Барек, Слим Эль Хедли
О фильме: Тони знакомится на вечеринке с Джорджио, и легкое увлечение перерастает в настоящую страсть. Десять лет всепоглощающей любви, полной безоглядного счастья и ослепляющей ревности. Оказавшись наедине с собой, Тони возвращается в мыслях к отношениям с Джоржио. Кто был этот человек? Кем она стала рядом с ним? Тони предстоит долгая работа, которая излечит душу и смягчит сердце.

Выпущено: Франция
Продолжительность: 02:05:08
Озвучивание: Профессиональное (многоголосное) Официальный звук
Примечание: Релиз без рекламы.
Файл
Формат: MKV
Качество: WEB-DL 720p
Видео: MPEG-4 AVC, 3931 kb/s, 1280x532
Аудио: Russian: AC3, 192 kb/s (2 ch) / French: AC3, 384 kb/s (6 ch)

MI

Format : Matroska
Format version : Version 2
File size : 4.02 GiB
Duration : 2h 5mn
Overall bit rate : 4 598 Kbps
Encoded date : UTC 2016-02-24 10:40:52
Writing application : mkvmerge v7.8.0 ('River Man') 32bit built on Apr 3 2015 12:11:22
Writing library : libebml v1.3.1 + libmatroska v1.4.2
Video
ID : 1
Format : AVC
Format/Info : Advanced Video Codec
Format profile : Main@L3.1
Format settings, CABAC : No
Format settings, ReFrames : 2 frames
Codec ID : V_MPEG4/ISO/AVC
Duration : 2h 5mn
Bit rate : 3 931 Kbps
Width : 1 280 pixels
Height : 532 pixels
Display aspect ratio : 2.40:1
Frame rate mode : Constant
Frame rate : 24.000 fps
Color space : YUV
Chroma subsampling : 4:2:0
Bit depth : 8 bits
Scan type : Progressive
Bits/(Pixel*Frame) : 0.241
Stream size : 3.44 GiB (85%)
Language : French
Default : Yes
Forced : No
Color range : Limited
Color primaries : BT.709
Transfer characteristics : BT.709
Matrix coefficients : BT.709
Audio #1
ID : 2
Format : AC-3
Format/Info : Audio Coding 3
Mode extension : CM (complete main)
Format settings, Endianness : Big
Codec ID : A_AC3
Duration : 2h 5mn
Bit rate mode : Constant
Bit rate : 192 Kbps
Channel(s) : 2 channels
Channel positions : Front: L R
Sampling rate : 48.0 KHz
Bit depth : 16 bits
Compression mode : Lossy
Stream size : 172 MiB (4%)
Language : Russian
Default : Yes
Forced : No
Audio #2
ID : 3
Format : AC-3
Format/Info : Audio Coding 3
Mode extension : CM (complete main)
Format settings, Endianness : Big
Codec ID : A_AC3
Duration : 2h 5mn
Bit rate mode : Constant
Bit rate : 384 Kbps
Channel(s) : 6 channels
Channel positions : Front: L C R, Side: L R, LFE
Sampling rate : 48.0 KHz
Bit depth : 16 bits
Compression mode : Lossy
Stream size : 344 MiB (8%)
Language : French
Default : No
Forced : No
Menu
00:00:00.000 : en:Chapitre 1
00:10:08.000 : en:Chapitre 2
00:20:21.000 : en:Chapitre 3
00:31:03.000 : en:Chapitre 4
00:40:09.000 : en:Chapitre 5
00:50:58.000 : en:Chapitre 6
01:01:21.000 : en:Chapitre 7
01:11:31.000 : en:Chapitre 8
01:20:53.000 : en:Chapitre 9
01:30:18.000 : en:Chapitre 10
01:40:09.000 : en:Chapitre 11
01:50:16.000 : en:Chapitre 12
01:58:32.000 : en:Chapitre 13

Скриншоты




[Профиль] [ЛС]
Кто просматривает тему:

Показать сообщения:    

Текущее время: Сегодня 09:51

Часовой пояс: GMT



Вы не можете начинать темы
Вы не можете отвечать на сообщения
Вы не можете редактировать свои сообщения
Вы не можете удалять свои сообщения
Вы не можете голосовать в опросах
Вы не можете прикреплять файлы к сообщениям
Вы не можете скачивать файлы