Мой домашний динозавр / The Water Horse (Джей Расселл / Jay Russell) [2007, США, Великобритания, фэнтези, приключения, семейный, BDRip-AVC] Dub (Blu-ray CEE) + Sub Rus, Ukr, Eng + Original Eng

 
Автор Сообщение

TorrentFilm ®

Пол:

Стаж: 2 года

Сообщений: 7741



Награды: Нет

Торрент-статистика

Создавать темы 23-Сен-2015 00:06

[Цитировать]

Мой домашний динозавр
The Water Horse
«Все большое начинается с малого»
- Страна: США, Великобритания
Жанр: фэнтези, приключения, семейный
Год выпуска: 2007
Продолжительность: 01:51:48
Перевод: Профессиональный (дублированный) Blu-ray CEE
Cубтитры: Rus, Ukr, Eng (Full, SDH)
Оригинальная аудиодорожка: английский-Режиссер: Джей Расселл / Jay Russell
В ролях
Алекс Этел | Alex Etel
Бен Чаплин | Ben Chaplin

Брюс Олпресс, Эдди Кэмпбелл, Питер Корригэн, Брайан Кокс, Carl Dixon, Nathan Christopher Haase, Крэйг Холл, Ian Harcourt, Rex Hurst, Билл Джонсон, Megan Katherine, Эллиот Лоулесс, Лоррэйн МакДональд, Дэвид Морисси, Маршалл Напье, Эдвард Ньюборн, Луис Оуэн Коллинз, Phil Peleton, William Russell-ОписаниеТуманным утром на берегу шотландского озера обычный мальчишка находит загадочное крупное яйцо. Когда же яйцо раскрывается, на свет появляется мифическое существо, напоминающее дракона. Герой древнейших легенд начинает быстро расти, и его аппетит вместе с ним. А задорный характер существа оставляет все меньше шансов на то, что «маленькая» тайна так и останется таковой. Мальчик старается защитить своего подопечного от тех, кому он предоставляется угрозой. Но как укрыть его от людских глаз?-Сэмпл

IMDb: 6.50 (29 591)
Качество видео: BDRip-AVC The Water Horse (2007) Blu-ray CEE 1080p AVC DD5.1-HDBT HDCLUB
Формат видео: MKV
Видео: AVC 4152 Kbps 1152 x 480 (2.400) 23.976 fps
Аудио: AC-3 448 Kbps 6 channels, 48.0 KHz Dub Blu-ray CEE
Аудио 2: AC-3 448 Kbps 6 channels, 48.0 KHz Eng
Формат субтитров: softsub (SRT)

MediaInfo | LogLog

x264 [info]: frame I:1182 Avg QP:16.38 size: 97178
x264 [info]: frame P:35549 Avg QP:17.92 size: 40489
x264 [info]: frame B:124117 Avg QP:20.10 size: 16234
x264 [info]: consecutive B-frames: 2.1% 2.8% 9.9% 22.4% 15.6% 34.8% 5.1% 4.2% 1.3% 0.7% 0.4% 0.5% 0.4%
x264 [info]: mb I I16..4: 10.1% 75.6% 14.3%
x264 [info]: mb P I16..4: 0.5% 19.4% 1.2% P16..4: 23.8% 29.8% 14.9% 2.2% 0.2% skip: 7.8%
x264 [info]: mb B I16..4: 0.0% 2.6% 0.2% B16..8: 35.2% 22.1% 5.4% direct: 7.2% skip:27.3% L0:43.3% L1:44.2% BI:12.4%
x264 [info]: 8x8 transform intra:90.7% inter:57.7%
x264 [info]: direct mvs spatial:99.9% temporal:0.1%
x264 [info]: coded y,uvDC,uvAC intra: 96.3% 91.8% 78.4% inter: 37.3% 27.2% 8.4%
x264 [info]: i16 v,h,dc,p: 36% 13% 15% 37%
x264 [info]: i8 v,h,dc,ddl,ddr,vr,hd,vl,hu: 7% 9% 12% 10% 13% 12% 13% 11% 14%
x264 [info]: i4 v,h,dc,ddl,ddr,vr,hd,vl,hu: 6% 9% 5% 9% 15% 14% 15% 11% 15%
x264 [info]: i8c dc,h,v,p: 51% 20% 13% 16%
x264 [info]: Weighted P-Frames: Y:7.1% UV:4.7%
x264 [info]: ref P L0: 43.7% 11.0% 17.8% 6.9% 5.8% 3.9% 3.7% 1.9% 2.0% 1.5% 1.6% 0.2% 0.0%
x264 [info]: ref B L0: 70.0% 12.6% 5.9% 3.5% 2.4% 2.0% 1.8% 1.0% 0.6% 0.3%
x264 [info]: ref B L1: 93.0% 7.0%
x264 [info]: kb/s:4256.17
x264 [total]: encoded 160848 frames, 9.10 fps, 4256.17 kb/s, duration 4:54:29.76
Format : Matroska
Format version : Version 4 / Version 2
File size : 4.02 GiB
Duration : 1h 51mn
Overall bit rate : 5 151 Kbps
Encoded date : UTC 2015-09-21 06:04:22
Writing application : mkvmerge v6.7.0 ('Back to the Ground') 32bit built on Jan 8 2014 15:03:17
Writing library : libebml v1.3.0 + libmatroska v1.4.1
Video
ID : 1
Format : AVC
Format/Info : Advanced Video Codec
Format profile : High@L4.1
Format settings, CABAC : Yes
Format settings, ReFrames : 11 frames
Codec ID : V_MPEG4/ISO/AVC
Duration : 1h 51mn
Bit rate : 4 152 Kbps
Width : 1 152 pixels
Height : 480 pixels
Display aspect ratio : 2.40:1
Frame rate mode : Constant
Frame rate : 23.976 fps
Color space : YUV
Chroma subsampling : 4:2:0
Bit depth : 8 bits
Scan type : Progressive
Bits/(Pixel*Frame) : 0.313
Stream size : 3.24 GiB (81%)
Title : The Water Horse (2007) [torrentfilm.net]
Writing library : x264 core 148 r2579kMod 73ae2d1
Encoding settings : cabac=1 / ref=11 / deblock=1:-2:-1 / analyse=0x3:0x133 / me=umh / subme=11 / psy=1 / fade_compensate=0.00 / psy_rd=1.00:0.05 / mixed_ref=1 / me_range=32 / chroma_me=1 / trellis=2 / 8x8dct=1 / cqm=0 / deadzone=21,11 / fast_pskip=0 / chroma_qp_offset=-3 / threads=12 / lookahead_threads=3 / sliced_threads=0 / nr=0 / decimate=1 / interlaced=0 / bluray_compat=0 / constrained_intra=0 / fgo=0 / bframes=12 / b_pyramid=2 / b_adapt=2 / b_bias=0 / direct=3 / weightb=1 / open_gop=0 / weightp=2 / keyint=250 / keyint_min=23 / scenecut=40 / intra_refresh=0 / rc_lookahead=80 / rc=crf / mbtree=0 / crf=18.3000 / qcomp=0.60 / qpmin=0 / qpmax=69 / qpstep=4 / vbv_maxrate=50000 / vbv_bufsize=62500 / crf_max=0.0 / nal_hrd=none / filler=0 / ip_ratio=1.40 / pb_ratio=1.30 / aq=3:0.90
Language : English
Default : Yes
Forced : No
Audio #1
ID : 2
Format : AC-3
Format/Info : Audio Coding 3
Mode extension : CM (complete main)
Format settings, Endianness : Big
Codec ID : A_AC3
Duration : 1h 51mn
Bit rate mode : Constant
Bit rate : 448 Kbps
Channel(s) : 6 channels
Channel positions : Front: L C R, Side: L R, LFE
Sampling rate : 48.0 KHz
Compression mode : Lossy
Stream size : 358 MiB (9%)
Title : DUB [Blu-ray CEE]
Language : Russian
Default : Yes
Forced : No
Audio #2
ID : 3
Format : AC-3
Format/Info : Audio Coding 3
Mode extension : CM (complete main)
Format settings, Endianness : Big
Codec ID : A_AC3
Duration : 1h 51mn
Bit rate mode : Constant
Bit rate : 448 Kbps
Channel(s) : 6 channels
Channel positions : Front: L C R, Side: L R, LFE
Sampling rate : 48.0 KHz
Compression mode : Lossy
Stream size : 358 MiB (9%)
Title : Original
Language : English
Default : No
Forced : No
Text #1
ID : 4
Format : UTF-8
Codec ID : S_TEXT/UTF8
Codec ID/Info : UTF-8 Plain Text
Title : Full [Korney]
Language : Russian
Default : No
Forced : No
Text #2
ID : 5
Format : UTF-8
Codec ID : S_TEXT/UTF8
Codec ID/Info : UTF-8 Plain Text
Title : Full [Videoservice]
Language : Ukrainian
Default : No
Forced : No
Text #3
ID : 6
Format : UTF-8
Codec ID : S_TEXT/UTF8
Codec ID/Info : UTF-8 Plain Text
Title : Full
Language : English
Default : No
Forced : No
Text #4
ID : 7
Format : UTF-8
Codec ID : S_TEXT/UTF8
Codec ID/Info : UTF-8 Plain Text
Title : SDH
Language : English
Default : No
Forced : No
Menu
00:00:00.000 : en:1.
00:06:01.695 : en:2.
00:13:35.231 : en:3.
00:19:04.518 : en:4.
00:27:39.032 : en:5.
00:34:05.835 : en:6.
00:39:48.845 : en:7.
00:47:55.206 : en:8.
00:56:37.102 : en:9.
01:02:27.160 : en:10.
01:08:12.213 : en:11.
01:17:05.204 : en:12.
01:24:47.332 : en:13.
01:29:57.517 : en:14.
01:34:00.927 : en:15.
01:39:41.475 : en:16.

Скриншоты | Rip vs Source





Source
[Профиль] [ЛС]
Кто просматривает тему:

Показать сообщения:    

Текущее время: Сегодня 20:42

Часовой пояс: GMT



Вы не можете начинать темы
Вы не можете отвечать на сообщения
Вы не можете редактировать свои сообщения
Вы не можете удалять свои сообщения
Вы не можете голосовать в опросах
Вы не можете прикреплять файлы к сообщениям
Вы не можете скачивать файлы