Мой белый и пушистый (Максим Демченко) [2013, Россия, мелодрама, HDTV 1080i]

 
Автор Сообщение

TorrentFilm ®

Пол:

Стаж: 1 год 11 месяцев

Сообщений: 7741



Награды: Нет

Торрент-статистика

Создавать темы 28-Янв-2016 00:08

[Цитировать]

Мой белый и пушистый
Жанр: мелодрама
Год выпуска: 2013
Продолжительность: 01:34:14
Режиссёр: Максим Демченко
В ролях: Светлана Антонова, Андрей Биланов, Руслан Чернецкий, Юлия Кудояр, Анастасия Сорокина, Ольга Клебанович, Владимир Мищанчук, Анна Хитрик, Андрей Кривецкий, Антон Старовойтов, Анастасия Клименко, Оксана Лесная, Елена Дубровская, Евгений Хамелянский
Описание: Лена всегда была хорошей женой. Ради мужа Виталия она оставила успешную карьеру и занялась домашним хозяйством. Только все напрасно. Муж потихоньку крутит романы, а свекровь пилит Лену за то, что у нее нет детей. По мнению свекрови семья без детей – не семья. А если Лена родить в не состоянии, Виталию нужно найти другую жену. Поэтому когда Виталий заводит очередной роман, свекровь едва ли не аплодирует. А для Лены это, естественно, сильный удар. И, к сожалению, не единственный. В автомобильной катастрофе погибает близкая подруга Лены, оставив сиротой маленького сына Дениску. Лене предстоит «сразиться» за ребёнка с пьющим братом подруги и в непростых условиях добиться опеки над малышом. Не сломаться под грузом проблем женщине поможет новый знакомый – сосед подруги – Николай…
Сэмпл: http://multi-up.com/1080298
Качество видео: HDTV 1080i
Формат видео: TS
Видео: AVC, 1920x1080, (16:9), 25 fps, 9 142 Kbps
Аудио: MP2, 48 kHz; 2 ch; 192 kbps

MediaInfo

General
ID : 1 (0x1)
Complete name : C:\Мой белый и пушистый_2013_HDTV 1080i.ts
Format : MPEG-TS
File size : 6.47 GiB
Duration : 1h 34mn
Overall bit rate mode : Variable
Overall bit rate : 9 821 Kbps
Video
ID : 306 (0x132)
Menu ID : 20106 (0x4E8A)
Format : AVC
Format/Info : Advanced Video Codec
Format profile : Main@L4
Format settings, CABAC : Yes
Format settings, ReFrames : 4 frames
Codec ID : 27
Duration : 1h 34mn
Bit rate : 9 142 Kbps
Width : 1 920 pixels
Height : 1 080 pixels
Display aspect ratio : 16:9
Frame rate : 25.000 fps
Standard : Component
Color space : YUV
Chroma subsampling : 4:2:0
Bit depth : 8 bits
Scan type : Interlaced
Scan type, store method : Separated fields
Scan order : Top Field First
Bits/(Pixel*Frame) : 0.176
Stream size : 6.02 GiB (93%)
Color range : Limited
Color primaries : BT.709
Transfer characteristics : BT.709
Matrix coefficients : BT.709
Audio
ID : 406 (0x196)
Menu ID : 20106 (0x4E8A)
Format : MPEG Audio
Format version : Version 1
Format profile : Layer 2
Codec ID : 3
Duration : 1h 34mn
Bit rate mode : Constant
Bit rate : 192 Kbps
Channel(s) : 2 channels
Sampling rate : 48.0 KHz
Compression mode : Lossy
Stream size : 130 MiB (2%)
Language : English

Скриншот c названием фильма

Скриншоты

[Профиль] [ЛС]
Кто просматривает тему:

Показать сообщения:    

Текущее время: Сегодня 18:01

Часовой пояс: GMT



Вы не можете начинать темы
Вы не можете отвечать на сообщения
Вы не можете редактировать свои сообщения
Вы не можете удалять свои сообщения
Вы не можете голосовать в опросах
Вы не можете прикреплять файлы к сообщениям
Вы не можете скачивать файлы