Мои черничные ночи / My Blueberry Nights (2007) BDRip 1080p | P, P2

 
Автор Сообщение

sergej644 ®

Пол:

Стаж: 4 года 11 месяцев

Сообщений: 6042

Откуда: Soviet Union



Награды: Нет

Торрент-статистика

Создавать темы 31-Окт-2014 11:47

[Цитировать]

Информация о фильме
Название: Мои черничные ночи
Оригинальное: My Blueberry Nights
Год выхода: 2007
Выпущено: Block 2 Pictures, Jet Tone Production, Studio Canal, Lou Yi Ltd.
Страна: Гонконг, Китай, Франция
Жанр: Драма, мелодрама
Продолжительность: 01:34:59
Перевод: Профессиональный многоголосый, двухголосый
Режиссер: Кар Вай Вонг
В ролях: Джуд Лоу, Натали Портман, Рэйчел Вайз, Нора Джонс, Чад Дэвис, Катя Блюменберг, Джон Маллой, Деметриус Батлер, Фрэнки Фэйзон, Дэвид Стрэтэйрн, Адриан Ленокс, Бенджамин Кейнс, Кэт Пауэр, Майкл Хартнет, Майкл Мэй, Джесси Гарон, Сэм Хилл, Трэйси Элизабет Блэкуелл, Майкл Делано, Одрей Кайрен, Билл Холлис, Гектор А. Легиллоу
-Сюжет фильма
Элизабет, молодая женщина, прошедшая через множество разочарований, ищет себя и пытается залечить своё разбитое сердце. По мере того, как заживают сердечные раны, мимолётные встречи с незнакомыми людьми ведут её к новым и неизведанным страницам жизни.
Будь то мечтательный владелец ночного кафе или невезучая девушка-игрок, делающая Элизабет отчаянное предложение, или несчастный полицейский и его непокорная жена — все эти люди помогают Элизабет изменить свои взгляды на жизнь, на взаимоотношения между людьми и, в конечном счёте, на саму себя. Постепенно Элизабет освобождается от прошлого и открывает новый путь к глубинам своей души — путь к подлинной любви.
-Файл
Кодек: x264
Формат: MKV
Качество: BDRip 1080p (Источник: HDCLUB / Blu-Ray / 1080p)
Видео: MPEG-4 AVC (2.35:1) 1916x812 pix, 23.976 fps, 8734 kbps
Аудио I: Dolby Digital (5.1) 16 bit, 48 kHz, 640 kbps (MVO R5 "CP-Digital")
Аудио II: Dolby Digital (2.0) 16 bit, 48 kHz, 192 kbps (DVO "СТС")
Аудио III: DTS (5.1) 16 bit, 48 kHz, 1509 kbps (Eng "Original")
Субтитры: SRT Русские, Английские
Меню: Сохранены оригинальные чаптеры Blu-ray

MI & x264

General
Unique ID : 181828268001362763373410575129035448155 (0x88CAD9C171F754EB98B70C8E8D589F5B)
Format : Matroska
Format version : Version 2
File size : 7.50 GiB
Duration : 1h 35mn
Overall bit rate : 11.3 Mbps
Movie name : Мои черничные ночи (2007) BDRip (1080p)
Encoded date : UTC 2014-09-28 09:38:51
Writing application : mkvmerge v5.8.0 ('No Sleep / Pillow') built on Sep 2 2012 15:37:04
Writing library : libebml v1.2.3 + libmatroska v1.3.0
Video
ID : 1
Format : AVC
Format/Info : Advanced Video Codec
Format profile : High@L4.1
Format settings, CABAC : Yes
Format settings, ReFrames : 5 frames
Codec ID : V_MPEG4/ISO/AVC
Duration : 1h 35mn
Bit rate : 8 734 Kbps
Width : 1 916 pixels
Height : 812 pixels
Display aspect ratio : 2.35:1
Frame rate mode : Constant
Frame rate : 23.976 fps
Color space : YUV
Chroma subsampling : 4:2:0
Bit depth : 8 bits
Scan type : Progressive
Bits/(Pixel*Frame) : 0.234
Stream size : 5.80 GiB (77%)
Title : Release by Alex260680
Writing library : x264 core 142 r2479 dd79a61
Encoding settings : cabac=1 / ref=5 / deblock=1:-2:-2 / analyse=0x3:0x133 / me=umh / subme=11 / psy=1 / psy_rd=1.00:0.00 / mixed_ref=1 / me_range=32 / chroma_me=1 / trellis=2 / 8x8dct=1 / cqm=0 / deadzone=21,11 / fast_pskip=1 / chroma_qp_offset=-2 / threads=6 / lookahead_threads=1 / sliced_threads=0 / nr=0 / decimate=1 / interlaced=0 / bluray_compat=0 / constrained_intra=0 / bframes=8 / b_pyramid=2 / b_adapt=2 / b_bias=0 / direct=3 / weightb=1 / open_gop=0 / weightp=2 / keyint=240 / keyint_min=23 / scenecut=40 / intra_refresh=0 / rc_lookahead=60 / rc=crf / mbtree=0 / crf=19.0 / qcomp=0.60 / qpmin=0 / qpmax=69 / qpstep=4 / vbv_maxrate=50000 / vbv_bufsize=62500 / crf_max=0.0 / nal_hrd=none / filler=0 / ip_ratio=1.40 / pb_ratio=1.30 / aq=1:0.80
Language : English
Default : Yes
Forced : No
Audio #1
ID : 2
Format : AC-3
Format/Info : Audio Coding 3
Mode extension : CM (complete main)
Format settings, Endianness : Big
Codec ID : A_AC3
Duration : 1h 35mn
Bit rate mode : Constant
Bit rate : 640 Kbps
Channel(s) : 6 channels
Channel positions : Front: L C R, Side: L R, LFE
Sampling rate : 48.0 KHz
Bit depth : 16 bits
Compression mode : Lossy
Stream size : 435 MiB (6%)
Title : MVO (CP-Digital)
Language : Russian
Default : Yes
Forced : No
Audio #2
ID : 3
Format : AC-3
Format/Info : Audio Coding 3
Mode extension : CM (complete main)
Format settings, Endianness : Big
Codec ID : A_AC3
Duration : 1h 35mn
Bit rate mode : Constant
Bit rate : 192 Kbps
Channel(s) : 2 channels
Channel positions : Front: L R
Sampling rate : 48.0 KHz
Bit depth : 16 bits
Compression mode : Lossy
Stream size : 131 MiB (2%)
Title : DVO (СТС)
Language : Russian
Default : No
Forced : No
Audio #3
ID : 4
Format : DTS
Format/Info : Digital Theater Systems
Mode : 16
Format settings, Endianness : Big
Codec ID : A_DTS
Duration : 1h 35mn
Bit rate mode : Constant
Bit rate : 1 509 Kbps
Channel(s) : 6 channels
Channel positions : Front: L C R, Side: L R, LFE
Sampling rate : 48.0 KHz
Bit depth : 16 bits
Compression mode : Lossy
Stream size : 1.00 GiB (13%)
Title : Original
Language : English
Default : No
Forced : No
Text #1
ID : 5
Format : UTF-8
Codec ID : S_TEXT/UTF8
Codec ID/Info : UTF-8 Plain Text
Language : Russian
Default : No
Forced : No
Text #2
ID : 6
Format : UTF-8
Codec ID : S_TEXT/UTF8
Codec ID/Info : UTF-8 Plain Text
Language : English
Default : No
Forced : No
Menu
00:00:00.000 : en:Chapter1
00:01:15.242 : en:Chapter2
00:08:58.496 : en:Chapter3
00:13:26.472 : en:Chapter4
00:18:51.547 : en:Chapter5
00:23:23.569 : en:Chapter6
00:33:02.898 : en:Chapter7
00:40:26.591 : en:Chapter8
00:45:29.602 : en:Chapter9
00:54:24.344 : en:Chapter10
01:00:45.392 : en:Chapter11
01:07:32.799 : en:Chapter12
01:13:27.486 : en:Chapter13
01:19:00.402 : en:Chapter14
01:24:02.412 : en:Chapter15
01:31:55.760 : en:Chapter16-x264 [info]: frame I:822 Avg QP:16.73 size:169588
x264 [info]: frame P:26587 Avg QP:18.00 size: 90120
x264 [info]: frame B:109251 Avg QP:20.84 size: 35236
x264 [info]: consecutive B-frames: 1.2% 1.1% 2.3% 20.5% 6.6% 59.8% 2.3% 5.7% 0.4%
-- --
[Профиль] [ЛС]
Кто просматривает тему:

Показать сообщения:    

Текущее время: Сегодня 14:27

Часовой пояс: GMT



Вы не можете начинать темы
Вы не можете отвечать на сообщения
Вы не можете редактировать свои сообщения
Вы не можете удалять свои сообщения
Вы не можете голосовать в опросах
Вы не можете прикреплять файлы к сообщениям
Вы не можете скачивать файлы