Моби Дик / Moby Dick (Майк Баркер / Mike Barker) [2010, Германия, Австрия, драма, приключения, BDRip] MVO

 
Автор Сообщение

TorrentFilm ®

Пол:

Стаж: 1 год 11 месяцев

Сообщений: 7741



Награды: Нет

Торрент-статистика

Создавать темы 30-Авг-2015 00:10

[Цитировать]

Моби Дик / Moby Dick
Страна: Германия, Австрия
Жанр: драма, приключения
Год выпуска: 2010
Продолжительность: 03:04:11
Перевод: Профессиональный (многоголосый закадровый)
Cубтитры: нет

Режиссер: Майк Баркер / Mike Barker
В ролях: Уильям Хёрт, Итан Хоук, Чарли Кокс, Эдди Марсан, Джиллиан Андерсон, Билли Бойд, Рауль Трухильо, Дэниэл С. Гордон, Джеймс Гилберт, Мэттью Лемке
Описание: Неутолимая жажда приключений приводит молодого американца Измаила на борт китобойного судна. Уже отбыв в многодневное и опасное плавание, Измаил узнает, что капитан корабля одержим безумной идеей найти и уничтожить легендарного белого кита по прозвищу Моби Дик, которого не без основания называют «морским дьяволом».
Качество видео: BDRip
Формат видео: AVI
Видео: 656x368 (1.78:1), 23.976 fps, XviD build 73 ~999 kbps avg, 0.17 bit/pixel
Аудио: 48 kHz, MPEG Layer 3, 2 ch, ~128.00 kbps avg

MediaInfo

Общее
Полное имя : H:\Moby.Dick.2010.bdrip_[1.46]_[teko].avi
Формат : AVI
Формат/Информация : Audio Video Interleave
Размер файла : 1,46 Гбайт
Продолжительность : 3 ч. 4 м.
Общий поток : 1137 Кбит/сек
Программа кодирования : VirtualDubMod 1.5.10.3 | www.virtualdub-fr.org || (build 2550/release)
Библиотека кодирования : VirtualDubMod build 2550/release
Видео
Идентификатор : 0
Формат : MPEG-4 Visual
Профиль формата : Advanced Simple@L5
Параметр BVOP формата : 1
Параметр QPel формата : Нет
Параметр GMC формата : Без точки перехода
Параметр матрицы формата : Выборочная
Идентификатор кодека : XVID
Идентификатор кодека/Подсказка : XviD
Продолжительность : 3 ч. 4 м.
Битрейт : 1000 Кбит/сек
Ширина : 656 пикселей
Высота : 368 пикселей
Соотношение сторон : 16:9
Частота кадров : 23,976 кадра/сек
Цветовое пространство : YUV
Субдискретизация насыщенности : 4:2:0
Битовая глубина : 8 бит
Тип развёртки : Прогрессивная
Метод сжатия : С потерями
Бит/(Пиксели*Кадры) : 0.173
Размер потока : 1,29 Гбайт (88%)
Библиотека кодирования : XviD 73
Аудио
Идентификатор : 1
Формат : MPEG Audio
Версия формата : Version 1
Профиль формата : Layer 3
Идентификатор кодека : 55
Идентификатор кодека/Подсказка : MP3
Продолжительность : 3 ч. 4 м.
Вид битрейта : Постоянный
Битрейт : 128 Кбит/сек
Каналы : 2 канала
Частота : 48,0 КГц
Метод сжатия : С потерями
Размер потока : 169 Мбайт (11%)
Выравнивание : Соединение по промежуткам
Продолжительность промежутка : 42 мс. (1,00 видеокадр)
Время предзагрузки промежутка : 504 мс.
Библиотека кодирования : LAME3.98r
Настройки программы : -m s -V 4 -q 2 -lowpass 17 -b 128
Релиз группы:
--
[Профиль] [ЛС]

Создавать темы 12-Июн-2016 07:53 (спустя 9 месяцев 13 дней)

Топик был перенесен из форума Фильмы 2011 года в форум Фильмы 2010 года
Russian Mafia
 
Кто просматривает тему:

Показать сообщения:    

Текущее время: Сегодня 07:06

Часовой пояс: GMT



Вы не можете начинать темы
Вы не можете отвечать на сообщения
Вы не можете редактировать свои сообщения
Вы не можете удалять свои сообщения
Вы не можете голосовать в опросах
Вы не можете прикреплять файлы к сообщениям
Вы не можете скачивать файлы