Моби Дик / Moby Dick (Майк Баркер / Mike Barker) [2010, Германия, Австрия, драма, приключения, BDRip] MVO (R5)

 
Автор Сообщение

TorrentFilm ®

Пол:

Стаж: 2 года

Сообщений: 7741



Награды: Нет

Торрент-статистика

Создавать темы 02-Май-2015 00:04

[Цитировать]

Моби Дик / Moby Dick

«Эпическая история о синем море, белом ките и тёмной душе»»
-Страна: Германия, Австрия
Студия: Gate Filmproduktion, Tele München Fernseh Produktionsgesellschaft
Жанр: драма, приключения
Год выпуска: 2010
Продолжительность: 03:04:11-Перевод: Профессиональный (многоголосый закадровый) - | Лицензия - R5 |
Cубтитры: нет
Оригинальная аудиодорожка: нет-Режиссер: Майк Баркер / Mike Barker-В ролях: Уильям Хёрт, Итан Хоук, Чарли Кокс, Эдди Марсан, Джиллиан Андерсон, Билли Бойд, Рауль Трухильо, Дэниэл С. Гордон, Джеймс Гилберт, Мэттью Лемке...-Описание: Неутолимая жажда приключений приводит молодого американца Измаила на борт китобойного судна. Уже отбыв в многодневное и опасное плавание, Измаил узнает, что капитан корабля одержим безумной идеей найти и уничтожить легендарного белого кита по прозвищу Моби Дик, которого не без основания называют «морским дьяволом».- -Качество видео: BDRip | MOBY DICK (TV) 2010 BluRay 1080p VC1 DTS-HD MA-HDChina |
Формат видео: AVI
Видео: 720x400, 23.976 fps, XviD build 73 ~1310 kbps avg, 0.190 bit/pixel
Аудио: 48 kHz, AC3 Dolby Digital, 3/2 (L,C,R,l,r) + LFE ch, ~384.00 kbps avg
-

Дополнительно о фильме:

Производство, студия дубляжа, прокат:

MediaInfo

General
Complete name : Moby Dick.BDRip.2.18gb.By_Flash.avi
Format : AVI
Format/Info : Audio Video Interleave
Format profile : OpenDML
File size : 2.19 GiB
Duration : 3h 4mn
Overall bit rate : 1 702 Kbps
Writing application : VirtualDubMod 1.5.10.3 | www.virtualdub-fr.org || (build 2550/release)
Writing library : VirtualDubMod build 2550/release
Video
ID : 0
Format : MPEG-4 Visual
Format profile : Advanced Simple@L5
Format settings, BVOP : 1
Format settings, QPel : No
Format settings, GMC : No warppoints
Format settings, Matrix : Custom
Codec ID : XVID
Codec ID/Hint : XviD
Duration : 3h 4mn
Bit rate : 1 306 Kbps
Width : 720 pixels
Height : 400 pixels
Display aspect ratio : 16:9
Frame rate : 23.976 fps
Color space : YUV
Chroma subsampling : 4:2:0
Bit depth : 8 bits
Scan type : Progressive
Compression mode : Lossy
Bits/(Pixel*Frame) : 0.189
Stream size : 1.68 GiB (77%)
Writing library : XviD 73
Audio
ID : 1
Format : AC-3
Format/Info : Audio Coding 3
Mode extension : CM (complete main)
Format settings, Endianness : Big
Codec ID : 2000
Duration : 3h 4mn
Bit rate mode : Constant
Bit rate : 384 Kbps
Channel(s) : 6 channels
Channel positions : Front: L C R, Side: L R, LFE
Sampling rate : 48.0 KHz
Bit depth : 16 bits
Compression mode : Lossy
Stream size : 506 MiB (23%)
Alignment : Split accross interleaves
Interleave, duration : 42 ms (1.00 video frame)
Interleave, preload duration : 500 ms

Скриншот c названием фильма

Скриншоты

[Профиль] [ЛС]

Создавать темы 06-Авг-2015 22:35 (спустя 3 месяца 4 дня)

Топик был перенесен из форума Фильмы до 2014 года в форум Фильмы до 2012 года
sergej644
 

Создавать темы 12-Июн-2016 07:54 (спустя 1 год 1 месяц)

Топик был перенесен из форума Фильмы 2011 года в форум Фильмы 2010 года
Russian Mafia
 
Кто просматривает тему:

Показать сообщения:    

Текущее время: Сегодня 04:14

Часовой пояс: GMT



Вы не можете начинать темы
Вы не можете отвечать на сообщения
Вы не можете редактировать свои сообщения
Вы не можете удалять свои сообщения
Вы не можете голосовать в опросах
Вы не можете прикреплять файлы к сообщениям
Вы не можете скачивать файлы