Мобильник / Cell (2016) BDRip-AVC | D, A | iTunes

 
Автор Сообщение

Russian Mafia ®

Пол:

Стаж: 1 год 8 месяцев

Сообщений: 4252



Награды: 10 (Подробнее)

Top Releaser 4 (Количество: 1) Mega Seeder 5 (Количество: 1) Top Releaser 2 (Количество: 1)
Торрент-статистика

Создавать темы 12-Авг-2016 14:38

[Цитировать]

Информация о фильме
Название: Мобильник
Оригинальное название: Cell
Год выпуска: 2016
Страна: США
Жанр: Ужасы, фантастика, триллер-Перевод: Дубляж - [iTunes]
Субтитры: русские (FULL), английские (FULL)
Продолжительность: 01:38:08-Режиссер: Тод «Кип» Уильямс
В ролях: Джон Кьюсак, Сэмюэл Л. Джексон, Изабель Фурман, Кларк Сарулло, Итан Эндрю Касто, Оуэн Тиг, Джошуа Микель, Энтони Рейнольдс, Эрин Элизабет Барнс-Описание:
История художника Клайтона Ридделла, становящегося свидетелем разрушительного действия некоего опасного импульса, источающегося сотовыми телефонами (скорость его распространения невероятно высока) и превращающего попавших под его влияние людей в безумцев. В компании нескольких незараженных героев он отправляется на поиски своей супруги и сына, чтобы выяснить, удалось ли спастись его семье.-Рейтинг: -Качество: BDRip-AVC
Формат: MKV
Видео: AVC, 1024x426 (2.40:1), 2 207 kbps, 23,976 fps, 0.211 bpp
Аудио №1: русский / AC3 / 5.1 / 48 kHz / 384 kbps / 16 bit
Аудио №2: Матвеев / AC3 / 5.1 / 48 kHz / 448 kbps / 16 bit
Аудио №3: английский / AC3 / 5.1 / 48 kHz / 448 kbps / 16 bit-Релиз от: -

ОтчетМедиаИнфо

Общее
Уникальный идентификатор : 206657925137502489631972890693263337718 (0x9B78DE5E52310B9C924E703B465AA8F6)
Полное имя : D:downloadCell.2016.BDRip-AVC by schultz R.G.Resident.mkv
Формат : Matroska
Версия формата : Version 4 / Version 2
Размер файла : 2,37 Гбайт
Продолжительность : 1 ч. 37 м.
Общий поток : 3484 Кбит/сек
Дата кодирования : UTC 2016-08-12 13:19:00
Программа кодирования : mkvmerge v6.7.0 ('Back to the Ground') 64bit built on Jan 8 2014 15:10:52
Библиотека кодирования : libebml v1.3.0 + libmatroska v1.4.1
Видео
Идентификатор : 1
Формат : AVC
Формат/Информация : Advanced Video Codec
Профиль формата : High@L4.1
Параметр CABAC формата : Да
Параметр ReFrames формата : 12 кадров
Идентификатор кодека : V_MPEG4/ISO/AVC
Продолжительность : 1 ч. 37 м.
Битрейт : 2207 Кбит/сек
Ширина : 1024 пикселя
Высота : 426 пикселей
Соотношение сторон : 2,40:1
Режим частоты кадров : Постоянный
Частота кадров : 23,976 кадра/сек
Цветовое пространство : YUV
Субдискретизация насыщенности : 4:2:0
Битовая глубина : 8 бит
Тип развёртки : Прогрессивная
Бит/(Пиксели*Кадры) : 0.211
Размер потока : 1,45 Гбайт (61%)
Библиотека кодирования : x264 core 146 r2538 121396c
Настройки программы : cabac=1 / ref=12 / deblock=1:-3:-3 / analyse=0x3:0x113 / me=umh / subme=11 / psy=1 / psy_rd=1.00:0.00 / mixed_ref=1 / me_range=48 / chroma_me=1 / trellis=2 / 8x8dct=1 / cqm=0 / deadzone=21,11 / fast_pskip=0 / chroma_qp_offset=-2 / threads=12 / lookahead_threads=3 / sliced_threads=0 / nr=0 / decimate=0 / interlaced=0 / bluray_compat=0 / constrained_intra=0 / bframes=13 / b_pyramid=2 / b_adapt=2 / b_bias=0 / direct=3 / weightb=1 / open_gop=0 / weightp=2 / keyint=240 / keyint_min=23 / scenecut=40 / intra_refresh=0 / rc_lookahead=40 / rc=2pass / mbtree=1 / bitrate=2207 / ratetol=1.0 / qcomp=0.60 / qpmin=0 / qpmax=69 / qpstep=4 / cplxblur=20.0 / qblur=0.5 / vbv_maxrate=14000 / vbv_bufsize=14000 / nal_hrd=none / filler=0 / ip_ratio=1.40 / aq=1:1.00
Язык : English
Default : Да
Forced : Нет
Аудио #1
Идентификатор : 2
Формат : AC-3
Формат/Информация : Audio Coding 3
Расширение режима : CM (complete main)
Параметр Endianness формата : Big
Идентификатор кодека : A_AC3
Продолжительность : 1 ч. 37 м.
Вид битрейта : Постоянный
Битрейт : 384 Кбит/сек
Каналы : 6 каналов
Расположение каналов : Front: L C R, Side: L R, LFE
Частота : 48,0 КГц
Битовая глубина : 16 бит
Метод сжатия : С потерями
Размер потока : 268 Мбайт (11%)
Язык : Russian
Default : Да
Forced : Нет
Аудио #2
Идентификатор : 3
Формат : AC-3
Формат/Информация : Audio Coding 3
Расширение режима : CM (complete main)
Параметр Endianness формата : Big
Идентификатор кодека : A_AC3
Продолжительность : 1 ч. 37 м.
Вид битрейта : Постоянный
Битрейт : 448 Кбит/сек
Каналы : 6 каналов
Расположение каналов : Front: L C R, Side: L R, LFE
Частота : 48,0 КГц
Битовая глубина : 16 бит
Метод сжатия : С потерями
Задержка видео : 28 мс.
Размер потока : 312 Мбайт (13%)
Язык : Russian
Default : Нет
Forced : Нет
Аудио #3
Идентификатор : 6
Формат : AC-3
Формат/Информация : Audio Coding 3
Расширение режима : CM (complete main)
Параметр Endianness формата : Big
Идентификатор кодека : A_AC3
Продолжительность : 1 ч. 37 м.
Вид битрейта : Постоянный
Битрейт : 448 Кбит/сек
Каналы : 6 каналов
Расположение каналов : Front: L C R, Side: L R, LFE
Частота : 48,0 КГц
Битовая глубина : 16 бит
Метод сжатия : С потерями
Размер потока : 312 Мбайт (13%)
Язык : English
Default : Нет
Forced : Нет
Текст #1
Идентификатор : 4
Формат : UTF-8
Идентификатор кодека : S_TEXT/UTF8
Идентификатор кодека/Информация : UTF-8 Plain Text
Заголовок : Full
Язык : Russian
Default : Нет
Forced : Нет
Текст #2
Идентификатор : 5
Формат : UTF-8
Идентификатор кодека : S_TEXT/UTF8
Идентификатор кодека/Информация : UTF-8 Plain Text
Заголовок : Full
Язык : English
Default : Нет
Forced : Нет
Меню
00:00:00.000 : en:Chapter 01
00:09:20.768 : en:Chapter 02
00:23:27.697 : en:Chapter 03
00:40:51.949 : en:Chapter 04
00:55:54.559 : en:Chapter 05
01:09:27.788 : en:Chapter 06
01:20:39.209 : en:Chapter 07
01:32:47.061 : en:Chapter 08

Скриншоты

[Профиль] [ЛС]
Показать сообщения:    

Текущее время: Сегодня 20:44

Часовой пояс: GMT



Вы не можете начинать темы
Вы не можете отвечать на сообщения
Вы не можете редактировать свои сообщения
Вы не можете удалять свои сообщения
Вы не можете голосовать в опросах
Вы не можете прикреплять файлы к сообщениям
Вы не можете скачивать файлы