Младенец на $30 000 000 / Bo bui gai wak (2006) BDRip [576p] iPad

 
Автор Сообщение

sergej644 ®

Пол:

Стаж: 4 года 11 месяцев

Сообщений: 6046

Откуда: Soviet Union



Награды: Нет

Торрент-статистика

Создавать темы 17-Янв-2015 19:39

[Цитировать]

-Младенец на $30 000 000 / Bo bui gai wak (2006) BDRip [576p] iPad
«Ползи, малыш, ползи!»
- Производство: Гонконг / Emperor Motion Pictures, JCE Movies, Huayi Brothers Media
Жанр: боевик, драма, комедия
Режиссер: Бенни Чан
Сценарий: Алань Юйэнь, Джеки Чан, Бенни Чан
Продюсер: Бенни Чан, Солон Со, Чжунлэй Ван
Актеры: Джеки Чан, Майкл Хюи, Луис Ку, Чарлин Чой, Юэнь Бяо, Гао Юаньюань, Тереза Карпио, Теренс Йин, Конвой Чан Чи-Чун, Хой Линь
Описание:
Для бездельника и игрока Тонгза есть только одна вещь пострашнее кредиторов под дверью — плачущий младенец. Но что если этот самый ребенок способен сделать его богатым? Сумеет ли Тонгз преодолеть свой панический страх перед памперсами, бутылочками со смесью и заунывными колыбельными...
Перевод: Двухголосый закадровый
Вид субтитров: Вшитые отключаемые
Язык субтитров: Английский

Дата мировой премьеры: 8 сентября 2006
Дата DVD релиза: 11 октября 2007, «CP-Digital»
Дата Blu-ray релиза: 28 октября 2008, Splendid Entertainment (GER)
Рейтинг MPAA: PG-13
Возраст: 12+
Продолжительность: 02:06:15
Качество: BDRip [576p]
Видео: MPEG-4 AVC/H.264, 1024x576 (16:9), 3 435 kbps, 23.976 fps
Аудио #1: Русский - AAC / 2.0 / 160 Kbps / 48.0 KHz - Двухголосый закадровый (Гланц и Королева)
Аудио #2: Английский - AAC / 2.0 / 160 Kbps / 48.0 KHz - Дублированный

iTunes Meta Tags

Sort Name: Bo bui gai wak
XID: Apple:vendor_id:2006-196952
Content ID: 196952
Copyright: Emperor Motion Pictures, JCE Movies, Huayi Brothers Media
ScreenWriters: Алань Юйэнь, Джеки Чан, Бенни Чан
Producers: Бенни Чан, Солон Со, Чжунлэй Ван
Director: Бенни Чан
Cast: Jackie Chan (Fong Ka Ho), Michael Hui (The Landlord), Louis Koo (Octopus), Lisa S. (Emily), Nicholas Tse (Nicholas), Charlene Choi (Pak Yin), Gao Yuanyuan (Melody)Джеки Чан, Майкл Хуи, Луис Ку, Чарлин Чой, Юэнь Бяо, Гао Юаньюань, Тереза Карпио, Теренс Йин, Конвой Чан Чи-Чун, Хой Линь
Rating: PG-13
Long Description: Для бездельника и игрока Тонгза есть только одна вещь пострашнее кредиторов под дверью — плачущий младенец. Но что если этот самый ребенок способен сделать его богатым? Сумеет ли Тонгз преодолеть свой панический страх перед памперсами, бутылочками со смесью и заунывными колыбельными?
Description: Для бездельника и игрока Тонгза есть только одна вещь пострашнее кредиторов под дверью — плачущий младенец. Но что если этот самый ребенок способен сделать его богатым? Сумеет ли Тонгз преодолеть свой панический страх перед памперсами
Release Date: 2006-09-08T08:00:00Z
Genre: Action
Artist: Benny Chan
Name: Младенец на $30 000 000 / Сокровище в пеленках
Comments: «Ползи, малыш, ползи!»

MediaInfo

General
Complete name               : E:\M4V\Bo.bui.gai.wak.2006.BDRip.576p.P2.NNM.m4v
Format                      : MPEG-4
Codec ID                    : M4V
File size                   : 3.33 GiB
Duration                    : 2h 6mn
Overall bit rate mode       : Variable
Overall bit rate            : 3 769 Kbps
Movie name                  : Младенец на $30 000 000 / Сокровище в пеленках
Performer                   : Benny Chan
Director                    : Бенни Чан
Actor                       : Jackie Chan (Fong Ka Ho) / Michael Hui (The Landlord) / Louis Koo (Octopus) / Lisa S. (Emily) / Nicholas Tse (Nicholas) / Charlene Choi (Pak Yin) / Gao Yuanyuan (Melody)Джеки Чан / Майкл Хуи / Луис Ку / Чарлин Чой / Юэнь Бяо / Гао Юаньюань / Тереза Карпио / Теренс Йин / Конвой Чан Чи-Чун / Хой Линь
Screenplay by               : Алань Юйэнь / Джеки Чан / Бенни Чан
Producer                    : Бенни Чан / Солон Со / Чжунлэй Ван
Genre                       : Action
ContentType                 : Short Film
Description                 : Для бездельника и игрока Тонгза есть только одна вещь пострашнее кредиторов под дверью — плачущий младенец. Но что если этот самый ребенок способен сделать его богатым? Сумеет ли Тонгз преодолеть свой панический страх перед памперсами
Recorded date               : UTC 2006-09-08 08:00:00
Encoded date                : UTC 2015-01-16 09:44:31
Tagged date                 : UTC 2015-01-16 09:47:01
Copyright                   : Emperor Motion Pictures, JCE Movies, Huayi Brothers Media
Cover                       : Yes
Comment                     : «Ползи, малыш, ползи!»
ContentRating               : mpaa|PG-13|300|
Title/Sort                  : Bo bui gai wak
LongDescription             : Для бездельника и игрока Тонгза есть только одна вещь пострашнее кредиторов под дверью — плачущий младенец. Но что если этот самый ребенок способен сделать его богатым? Сумеет ли Тонгз преодолеть свой панический страх перед памперсами, бутылочками со смесью и заунывными колыбельными?
AppleStoreCatalogID         : 196952
Vendor                      : Apple:vendor_id:2006-196952
Video
ID                          : 1
Format                      : AVC
Format/Info                 : Advanced Video Codec
Format profile              : [url=mailto:High@L4.1]High@L4.1[/url]
Format settings, CABAC      : Yes
Format settings, ReFrames   : 9 frames
Codec ID                    : avc1
Codec ID/Info               : Advanced Video Coding
Duration                    : 2h 6mn
Bit rate                    : 3 435 Kbps
Maximum bit rate            : 16.0 Mbps
Width                       : 1 024 pixels
Height                      : 576 pixels
Display aspect ratio        : 16:9
Frame rate mode             : Constant
Frame rate                  : 23.976 fps
Color space                 : YUV
Chroma subsampling          : 4:2:0
Bit depth                   : 8 bits
Scan type                   : Progressive
Bits/(Pixel*Frame)          : 0.243
Stream size                 : 3.03 GiB (91%)
Title                       : Bo bui gai wak _2006_
Language                    : English
Encoded date                : UTC 2015-01-16 09:44:31
Tagged date                 : UTC 2015-01-16 09:45:14
Color primaries             : BT.709
Transfer characteristics    : BT.709
Matrix coefficients         : BT.709
Color range                 : Limited
Audio #1
ID                          : 2
Format                      : AAC
Format/Info                 : Advanced Audio Codec
Format profile              : LC
Codec ID                    : 40
Duration                    : 2h 4mn
Bit rate mode               : Variable
Bit rate                    : 165 Kbps
Maximum bit rate            : 215 Kbps
Channel(s)                  : 2 channels
Channel positions           : Front: L R
Sampling rate               : 48.0 KHz
Compression mode            : Lossy
Stream size                 : 147 MiB (4%)
Title                       : DVO [Glanz _ Koroleva] / DVO [Glanz _ Koroleva]
Language                    : Russian
Encoded date                : UTC 2015-01-16 09:34:55
Tagged date                 : UTC 2015-01-16 09:45:14
Audio #2
ID                          : 3
Format                      : AAC
Format/Info                 : Advanced Audio Codec
Format profile              : LC
Codec ID                    : 40
Duration                    : 2h 6mn
Bit rate mode               : Variable
Bit rate                    : 160 Kbps
Maximum bit rate            : 208 Kbps
Channel(s)                  : 2 channels
Channel positions           : Front: L R
Sampling rate               : 48.0 KHz
Compression mode            : Lossy
Stream size                 : 145 MiB (4%)
Title                       : DUB / DUB
Language                    : English
Encoded date                : UTC 2015-01-16 09:41:20
Tagged date                 : UTC 2015-01-16 09:45:14
Text
ID                          : 4
Format                      : Timed Text
Muxing mode                 : sbtl
Codec ID                    : tx3g
Duration                    : 2h 6mn
Bit rate mode               : Variable
Bit rate                    : 49 bps
Stream size                 : 45.6 KiB (0%)
Language                    : English
Encoded date                : UTC 2015-01-16 09:45:14
Tagged date                 : UTC 2015-01-16 09:45:14

x264 лог

x264 [info]: frame I:1311  Avg QP:16.88  size:106172
x264 [info]: frame P:43368 Avg QP:20.03  size: 33799
x264 [info]: frame B:137266 Avg QP:20.85  size: 12046
x264 [info]: consecutive B-frames:  2.6%  4.6% 11.4% 19.6% 23.6% 35.0%  2.3%  0.5%  0.3%  0.1%  0.0%  0.0%  0.0%
x264 [info]: mb I  I16..4:  9.2% 70.0% 20.8%
x264 [info]: mb P  I16..4:  0.9% 12.8%  1.8%  P16..4: 32.0% 36.1% 11.9%  2.1%  0.3%    skip: 2.1%
x264 [info]: mb B  I16..4:  0.1%  2.0%  0.2%  B16..8: 37.2% 19.5%  2.8%  direct: 7.6%  skip:30.6%  L0:39.0% L1:45.2% BI:15.8%
x264 [info]: 8x8 transform intra:82.3% inter:57.6%
x264 [info]: coded y,uvDC,uvAC intra: 95.1% 92.7% 78.0% inter: 26.0% 38.3% 22.7%
x264 [info]: i16 v,h,dc,p: 26% 12%  9% 53%
x264 [info]: i8 v,h,dc,ddl,ddr,vr,hd,vl,hu:  9%  7%  7% 10% 15% 14% 13% 12% 13%
x264 [info]: i4 v,h,dc,ddl,ddr,vr,hd,vl,hu: 12%  9%  3%  9% 16% 15% 14% 11% 12%
x264 [info]: i8c dc,h,v,p: 45% 18% 18% 20%
x264 [info]: Weighted P-Frames: Y:1.6% UV:0.5%
x264 [info]: ref P L0: 48.4% 10.7% 17.8%  5.9%  5.4%  3.7%  3.6%  1.9%  2.1%  0.4%  0.0%
x264 [info]: ref B L0: 80.9%  9.1%  3.9%  2.1%  1.5%  1.3%  0.8%  0.3%
x264 [info]: ref B L1: 95.1%  4.9%
x264 [info]: kb/s:3435.18
Скриншоты:
-Время раздачи: 24/7, до 5 скачавших.
[Профиль] [ЛС]
Показать сообщения:    

Текущее время: Сегодня 13:04

Часовой пояс: GMT



Вы не можете начинать темы
Вы не можете отвечать на сообщения
Вы не можете редактировать свои сообщения
Вы не можете удалять свои сообщения
Вы не можете голосовать в опросах
Вы не можете прикреплять файлы к сообщениям
Вы не можете скачивать файлы