Младенец в подарок / Expecting (2013) WEB-DL 1080p | Чистый звук

 
Автор Сообщение

sergej644 ®

Пол:

Стаж: 4 года 11 месяцев

Сообщений: 6037

Откуда: Soviet Union



Награды: Нет

Торрент-статистика

Создавать темы 21-Янв-2015 00:08

[Цитировать]

Информация о фильме
Название: Младенец в подарок
Оригинальное название: Expecting
Год выхода: 2013
Жанр: Драма, комедия
Режиссер: Джесси МакКормак
В ролях: Мишель Монахэн, Рада Митчелл, Джон Дор, Майкл Уэстон, Мими Кеннеди, Сара Олдрич, Элизабет Бонд, Нуала Кэмпбелл, Джули Дретзин, Сьюзэн Грэйс
О фильме: Лиза стремится создать семью со свои мужем Питером, но не может забеременеть. Ее лучшая подруга Энди тем временем узнает, что беременна и предлагает своего ребенка отдать Лизе. Лиза приглашает Энди пожить на время беременности у них, а Питер приглашает своего непутевого брата. В доме начинает твориться хаос, и одному Богу известно чем все это может закончиться…

Страна: США / FilmColony, Unique New York Productions
Продолжительность: 01:27:25
Перевод: Профессиональный (многоголосый, закадровый) - Чистый звук
Файл
Качество: WEB-DL 1080p
Видео: MPEG4/AVC, 1912x1072 (16:9), 5224 Кбит/сек, 23.976 кадра/сек
Аудио 1: Русский (AC3, 2 канала, 192 Кбит/сек)
Аудио 2: Английский (AC3, 6 каналов, 384 Кбит/сек)
Субтитры: Английские
Навигация по главам: Есть

MediaInfo:

Общее
Уникальный идентификатор : 229525032685221626550797189680155231675 (0xACACE9D0E10F52D49B3C69D5215A85BB)
Полное имя : Expecting. (2013) WEB-DL 1080p.mkv
Формат : Matroska
Версия формата : Version 2
Размер файла : 3,61 Гбайт
Продолжительность : 1 ч. 27 м.
Общий поток : 5917 Кбит/сек
Название фильма : Expecting. 2013
Дата кодирования : UTC 2014-05-30 14:05:11
Программа кодирования : mkvmerge v5.8.0 ('No Sleep / Pillow') built on Sep 2 2012 15:37:04
Библиотека кодирования : libebml v1.2.3 + libmatroska v1.3.0
Видео
Идентификатор : 1
Формат : AVC
Формат/Информация : Advanced Video Codec
Профиль формата : High@L4.0
Параметр CABAC формата : Да
Параметр ReFrames формата : 4 кадра
Идентификатор кодека : V_MPEG4/ISO/AVC
Продолжительность : 1 ч. 27 м.
Битрейт : 5224 Кбит/сек
Ширина : 1912 пикселей
Высота : 1072 пикселя
Соотношение сторон : 16:9
Режим частоты кадров : Постоянный
Частота кадров : 23,976 кадра/сек
Цветовое пространство : YUV
Субдискретизация насыщенности : 4:2:0
Битовая глубина : 8 бит
Тип развёртки : Прогрессивная
Бит/(Пиксели*Кадры) : 0.106
Размер потока : 3,19 Гбайт (88%)
Язык : English
Default : Да
Forced : Нет
Основные цвета : BT.709
Характеристики трансфера : BT.709
Коэффициенты матрицы : BT.709
Аудио #1
Идентификатор : 2
Формат : AC-3
Формат/Информация : Audio Coding 3
Расширение режима : CM (complete main)
Параметр Endianness формата : Big
Идентификатор кодека : A_AC3
Продолжительность : 1 ч. 27 м.
Вид битрейта : Постоянный
Битрейт : 192 Кбит/сек
Каналы : 2 канала
Расположение каналов : Front: L R
Частота : 48,0 КГц
Битовая глубина : 16 бит
Метод сжатия : С потерями
Размер потока : 120 Мбайт (3%)
Заголовок : Line
Язык : Russian
Default : Да
Forced : Нет
Аудио #2
Идентификатор : 3
Формат : AC-3
Формат/Информация : Audio Coding 3
Расширение режима : CM (complete main)
Параметр Endianness формата : Big
Идентификатор кодека : A_AC3
Продолжительность : 1 ч. 27 м.
Вид битрейта : Постоянный
Битрейт : 384 Кбит/сек
Каналы : 6 каналов
Расположение каналов : Front: L C R, Side: L R, LFE
Частота : 48,0 КГц
Битовая глубина : 16 бит
Метод сжатия : С потерями
Размер потока : 240 Мбайт (6%)
Заголовок : iTunes | US
Язык : English
Default : Нет
Forced : Нет
Текст
Идентификатор : 4
Формат : UTF-8
Идентификатор кодека : S_TEXT/UTF8
Идентификатор кодека/Информация : UTF-8 Plain Text
Заголовок : Full
Язык : English
Default : Нет
Forced : Нет
Меню
00:00:00.000 : en:Chapter 1
00:05:59.000 : en:Chapter 2
00:15:02.000 : en:Chapter 3
00:25:31.000 : en:Chapter 4
00:33:57.000 : en:Chapter 5
00:43:30.000 : en:Chapter 6
00:53:31.000 : en:Chapter 7
01:01:46.000 : en:Chapter 8
01:10:30.000 : en:Chapter 9
01:19:57.000 : en:Chapter 10
01:23:53.000 : en:Chapter 11

Скриншоты:

[Профиль] [ЛС]
Показать сообщения:    

Текущее время: Сегодня 15:58

Часовой пояс: GMT



Вы не можете начинать темы
Вы не можете отвечать на сообщения
Вы не можете редактировать свои сообщения
Вы не можете удалять свои сообщения
Вы не можете голосовать в опросах
Вы не можете прикреплять файлы к сообщениям
Вы не можете скачивать файлы