Младенец в подарок / Expecting (2013) DVDRip от New-Team | P | лицензия

 
Автор Сообщение

sergej644 ®

Пол:

Стаж: 4 года 11 месяцев

Сообщений: 6045

Откуда: Soviet Union



Награды: Нет

Торрент-статистика

Создавать темы 16-Ноя-2014 21:06

[Цитировать]

«Когда планируешь жизнь заранее, судьба готовит неожиданные сюрпризы»-Страна: США / FilmColony, Unique New York Productions
Жанр: драма, комедия
Год выпуска: 2013
Продолжительность: 01:23:43
Перевод: Профессиональный (многоголосый закадровый)
Cубтитры: нет
Оригинальная аудиодорожка: нет
Режиссер: Джесси МакКормак / Jessie McCormack
В ролях: Мишель Монахэн, Рада Митчелл, Джон Дор, Майкл Уэстон, Мими Кеннеди, Сара Олдрич, Элизабет Бонд, Нуала Кэмпбелл, Джули Дретзин, Сьюзэн Грэйс...
Описание: Лиза стремится создать семью со свои мужем Питером, но не может забеременеть. Ее лучшая подруга Энди тем временем узнает, что беременна и предлагает своего ребенка отдать Лизе. Лиза приглашает Энди пожить на время беременности у них, а Питер приглашает своего непутевого брата. В доме начинает твориться хаос, и одному Богу известно, чем все это может закончиться…

Качество: DVDRip / DVD9 R5 - лицензионный диск от CD Land
Формат: AVI
Видео: 720x400 (16:9), XViD, 2153 kbps / 25,000 fps / bit/pix=0.299
Аудио: Russian: 48 kHz, AC3, 3/2 (L,C,R,l,r) + LFE ch, 448.00 kbps constant
Раздача от:

MediaInfo

General
Format : AVI
Format/Info : Audio Video Interleave
File size : 1.53 GiB
Duration : 1h 23mn
Overall bit rate : 2 611 Kbps
Writing application : VirtualDubMod 1.5.10.3 | www.virtualdub-fr.org || (build 2550/release)
Writing library : VirtualDubMod build 2550/release
Video
ID : 0
Format : MPEG-4 Visual
Format profile : Advanced Simple@L5
Format settings, BVOP : 1
Format settings, QPel : No
Format settings, GMC : No warppoints
Format settings, Matrix : Custom
Codec ID : XVID
Codec ID/Hint : XviD
Duration : 1h 23mn
Bit rate : 2 153 Kbps
Width : 720 pixels
Height : 400 pixels
Display aspect ratio : 16:9
Frame rate : 25.000 fps
Color space : YUV
Chroma subsampling : 4:2:0
Bit depth : 8 bits
Scan type : Progressive
Compression mode : Lossy
Bits/(Pixel*Frame) : 0.299
Stream size : 1.26 GiB (82%)
Writing library : XviD 73
Audio
ID : 1
Format : AC-3
Format/Info : Audio Coding 3
Mode extension : CM (complete main)
Format settings, Endianness : Big
Codec ID : 2000
Duration : 1h 23mn
Bit rate mode : Constant
Bit rate : 448 Kbps
Channel(s) : 6 channels
Channel positions : Front: L C R, Side: L R, LFE
Sampling rate : 48.0 KHz
Bit depth : 16 bits
Compression mode : Lossy
Stream size : 268 MiB (17%)
Alignment : Split accross interleaves
Interleave, duration : 40 ms (1.00 video frame)
Interleave, preload duration : 500 ms

Скриншоты:


[Профиль] [ЛС]
Показать сообщения:    

Текущее время: Сегодня 06:06

Часовой пояс: GMT



Вы не можете начинать темы
Вы не можете отвечать на сообщения
Вы не можете редактировать свои сообщения
Вы не можете удалять свои сообщения
Вы не можете голосовать в опросах
Вы не можете прикреплять файлы к сообщениям
Вы не можете скачивать файлы