Ми-ми-мишки [01-19] (2015) WEBDL 720p

 
Автор Сообщение

BOSS ®

Пол:

Стаж: 2 года 1 месяц

Сообщений: 3732

Откуда: ODESSA



Награды: 20 (Подробнее)

Mega Seeder 2 (Количество: 1) Mega Seeder 1 (Количество: 1) Top Keeper 4 (Количество: 1)
Торрент-статистика

Создавать темы 20-Дек-2015 07:35

[Цитировать]

Информация о фильме
Название: Ми-ми-мишки
Год выхода: 2015
Жанр: мультфильм, комедия
Режиссер: Алексей Миронов, Артур Толстобров
В ролях: Полина Кутепова, Наталия Медведева, Дарья Мазанова
О фильме:
Анимационный сериал о приключениях двух друзей — бурого медведя Иннокентия и белого медведя по имени Белая Тучка. Иннокентий любит гаджеты и технику, а Белая Тучка — дитя природы. Основной конфликт сюжета — поиск правильного баланса между прогрессом и любовью к природе. Давным-давно Белая Тучка приехал в гости и поселился в своем доме недалеко от дома Иннокентия. Сериал может помочь людям увидеть, что можно жить в гармонии с природой и при этом быть развитым, увлеченным, любящим науку и технику. Ну и что дружба преодолевает любые препятствия.

Страна: Россия
Продолжительность: ~ 00:05:30 серия
Перевод: Не требуется
Файл
Кодек: AVC / AAC
Качество: WEBDL 720p
Видео: AVC, 1280x720 (16:9), 25.000 fps, 1 111 Kbps (0.048 bit/pixel)
Звук: AAC LC, 44.1 KHz, 2 ch, 192 Kbps, VBR

MediaInfo

General
Complete name : 1 серия. Звездная история.mp4
Format : MPEG-4
Format profile : Base Media / Version 2
Codec ID : mp42
File size : 51.4 MiB
Duration : 5mn 30s
Overall bit rate mode : Variable
Overall bit rate : 1 306 Kbps
Encoded date : UTC 2015-09-23 07:23:34
Tagged date : UTC 2015-09-23 07:23:34
gsst : 0
gstd : 330093
gssd : BADC21585
gshh : r5---sn-3c27ln7z.googlevideo.com
Video
ID : 1
Format : AVC
Format/Info : Advanced Video Codec
Format profile : High@L3.1
Format settings, CABAC : Yes
Format settings, ReFrames : 1 frame
Codec ID : avc1
Codec ID/Info : Advanced Video Coding
Duration : 5mn 30s
Bit rate : 1 111 Kbps
Maximum bit rate : 3 616 Kbps
Width : 1 280 pixels
Height : 720 pixels
Display aspect ratio : 16:9
Frame rate mode : Constant
Frame rate : 25.000 fps
Color space : YUV
Chroma subsampling : 4:2:0
Bit depth : 8 bits
Scan type : Progressive
Bits/(Pixel*Frame) : 0.048
Stream size : 43.7 MiB (85%)
Tagged date : UTC 2015-09-23 07:23:36
Audio
ID : 2
Format : AAC
Format/Info : Advanced Audio Codec
Format profile : LC
Codec ID : 40
Duration : 5mn 30s
Bit rate mode : Variable
Bit rate : 192 Kbps
Maximum bit rate : 202 Kbps
Channel(s) : 2 channels
Channel positions : Front: L R
Sampling rate : 44.1 KHz
Compression mode : Lossy
Stream size : 7.55 MiB (15%)
Title : IsoMedia File Produced by Google, 5-11-2011
Language : English
Encoded date : UTC 2015-09-23 07:23:35
Tagged date : UTC 2015-09-23 07:23:36
[Профиль] [ЛС]
Кто просматривает тему:

Показать сообщения:    

Текущее время: Сегодня 06:04

Часовой пояс: GMT



Вы не можете начинать темы
Вы не можете отвечать на сообщения
Вы не можете редактировать свои сообщения
Вы не можете удалять свои сообщения
Вы не можете голосовать в опросах
Вы не можете прикреплять файлы к сообщениям
Вы не можете скачивать файлы