Мишень (Александр Зельдович) [2011, Россия, фантастика, драма, BDRip 720p] Original Rus

 
Автор Сообщение

TorrentFilm ®

Пол:

Стаж: 2 года

Сообщений: 7741



Награды: Нет

Торрент-статистика

Создавать темы 02-Янв-2016 00:00

[Цитировать]

Мишень-- Год выпуска: 2011
Страна: Россия
Студия: РЕН-фильм
Жанр: фантастика, драма
Продолжительность: 02:40:48
Перевод: Оригинал
Cубтитры: нет
Оригинальная аудиодорожка: Русский--Режиссер: Александр Зельдович / Alexander Zeldovich
В ролях: Максим Суханов, Джастин Уоддэлл, Данила Козловский, Даниэла Стоянович, Виталий Кищенко, Нина Лощинина, Антон Хабаров, Сергей Потапов, Егор Корешков, Олег Ягодин
Описание: Россия, 2020 год. В стране торжествуют стабильность и процветание, найден уникальный вариант общественного устройства, гарантирующий справедливое распределение общественных благ.
Герои фильма принадлежат к элите страны. Они обеспечены, влиятельны и, казалось бы, счастливы. Но их молодость уходит, а любовь со временем потеряла былой накал. Они не могут с этим смириться и отправляются в горы Алтая, где, по слухам, есть заброшенный с советских времен астрофизический комплекс - накопитель космических частиц. Местные жители называют его проще - мишень. Тот, кто проводит в центре мишени какое-то время, вновь обретает молодость и остроту чувств.
В Москву герои возвращаются совсем другими, абсолютно счастливыми, людьми. Но вместе с чувством бесконечной свободы и силы, до предела обостряются черты характеров и скрытые страсти героев. Каждый из них оказывается один на один со своим взбунтовавшимся «я»...
--Доп. информация: «In the year 2020, a group of wealthy Moscovites travel to an abandoned astrophysics complex, rumoured to have enough power to halt the process of ageing»


Релиз: by LexxBlack--Тип релиза: BDRip 720p
Формат: MKV
Видео кодек: MPEG-4 AVC Video
Аудио кодек: AC3
Источник: Мишень (2011) Blu-ray 1080p AVC DD 5.1(tnx crazy_gringo)
Видео: MPEG-4 AVC, 1280x720 (16:9), at 24.000 fps, ~ 6407 kbps avg, High Profile 4.1
Аудио: AC3, 48 kHz, 3/2 (L,C,R,l,r) + LFE ch, ~448 kbps avg [Russian]

MediaInfo

Общее
Уникальный идентификатор : 184407374578091171940138739624298234384 (0x8ABB918706911438A49CDC65E9A14210)
Полное имя : Mishen.2011.720p.BluRay.AC3.Rus.HDCLUB.mkv
Формат : Matroska
Версия формата : Version 2
Размер файла : 7,86 Гбайт
Продолжительность : 2 ч. 40 м.
Общий поток : 6994 Кбит/сек
Название фильма : Mishen (2011) - Release for HDCLUB by LexxBlack
Дата кодирования : UTC 2012-03-04 16:44:17
Программа кодирования : mkvmerge v5.3.0 ('I could have danced') built on Feb 9 2012 10:38:07
Библиотека кодирования : libebml v1.2.3 + libmatroska v1.3.0
Видео
Идентификатор : 1
Формат : AVC
Формат/Информация : Advanced Video Codec
Профиль формата : High@L4.1
Параметр CABAC формата : Да
Параметр ReFrames формата : 9 кадров
Идентификатор кодека : V_MPEG4/ISO/AVC
Продолжительность : 2 ч. 40 м.
Битрейт : 6407 Кбит/сек
Ширина : 1280 пикселей
Высота : 720 пикселей
Соотношение сторон : 16:9
Частота кадров : 24,000 кадра/сек
Цветовое пространство : YUV
Субдискретизация насыщенности : 4:2:0
Битовая глубина : 8 бит
Тип развёртки : Прогрессивная
Бит/(Пиксели*Кадры) : 0.290
Размер потока : 7,20 Гбайт (92%)
Заголовок : Release for HDCLUB
Библиотека кодирования : x264 core 120 r2164 da19765
Настройки программы : cabac=1 / ref=9 / deblock=1:-3:-3 / analyse=0x3:0x133 / me=umh / subme=11 / psy=1 / psy_rd=1.10:0.05 / mixed_ref=1 / me_range=32 / chroma_me=1 / trellis=2 / 8x8dct=1 / cqm=0 / deadzone=21,11 / fast_pskip=0 / chroma_qp_offset=-4 / threads=12 / sliced_threads=0 / nr=0 / decimate=1 / interlaced=0 / bluray_compat=0 / constrained_intra=0 / bframes=9 / b_pyramid=2 / b_adapt=2 / b_bias=0 / direct=3 / weightb=1 / open_gop=0 / weightp=2 / keyint=250 / keyint_min=23 / scenecut=40 / intra_refresh=0 / rc_lookahead=60 / rc=crf / mbtree=1 / crf=16.6 / qcomp=0.65 / qpmin=0 / qpmax=69 / qpstep=4 / vbv_maxrate=50000 / vbv_bufsize=62500 / crf_max=0.0 / nal_hrd=none / ip_ratio=1.40 / aq=1:1.00
Язык : Russian
Default : Да
Forced : Нет
Аудио
Идентификатор : 2
Формат : AC-3
Формат/Информация : Audio Coding 3
Расширение режима : CM (complete main)
Идентификатор кодека : A_AC3
Продолжительность : 2 ч. 40 м.
Вид битрейта : Постоянный
Битрейт : 448 Кбит/сек
Каналы : 6 каналов
Расположение каналов : Front: L C R, Side: L R, LFE
Частота : 48,0 КГц
Битовая глубина : 16 бит
Метод сжатия : С потерями
Размер потока : 515 Мбайт (6%)
Заголовок : AC3 | 5.1 ch | 48 kHz | 448 kbps | 16 bit
Язык : Russian
Default : Да
Forced : Нет

x264 log

raw [info]: 1280x720p 1:1 @ 24/1 fps (cfr)
x264 [info]: using SAR=1/1
x264 [info]: using cpu capabilities: MMX2 SSE2Fast SSSE3 FastShuffle SSE4.2
x264 [info]: profile High, level 4.1
x264 [info]: frame I:1822  Avg QP:12.94  size:216733
x264 [info]: frame P:48549 Avg QP:16.02  size: 67411
x264 [info]: frame B:181182 Avg QP:18.99  size: 23318
x264 [info]: consecutive B-frames:  1.9%  2.0%  5.9% 17.7% 16.1% 50.2%  4.4%  0.7%  0.9%  0.1%
x264 [info]: mb I  I16..4: 14.4% 55.4% 30.2%
x264 [info]: mb P  I16..4:  2.2% 14.9%  2.3%  P16..4: 26.1% 32.0% 11.8%  5.3%  0.8%    skip: 4.6%
x264 [info]: mb B  I16..4:  0.5%  4.1%  0.3%  B16..8: 32.7% 18.8%  3.5%  direct: 8.4%  skip:31.8%  L0:43.1% L1:41.4% BI:15.5%
x264 [info]: 8x8 transform intra:78.5% inter:52.9%
x264 [info]: direct mvs  spatial:100.0% temporal:0.0%
x264 [info]: coded y,uvDC,uvAC intra: 81.4% 76.6% 58.0% inter: 30.3% 32.3% 12.0%
x264 [info]: i16 v,h,dc,p: 39% 16% 10% 36%
x264 [info]: i8 v,h,dc,ddl,ddr,vr,hd,vl,hu: 10%  9% 13%  9% 12% 11% 12% 11% 13%
x264 [info]: i4 v,h,dc,ddl,ddr,vr,hd,vl,hu: 13% 11% 12%  8% 12% 11% 11% 10% 12%
x264 [info]: i8c dc,h,v,p: 46% 26% 17% 11%
x264 [info]: Weighted P-Frames: Y:2.0% UV:0.8%
x264 [info]: ref P L0: 44.3%  9.6% 18.8%  6.9%  6.3%  4.3%  4.3%  2.5%  2.8%  0.2%  0.0%
x264 [info]: ref B L0: 75.1% 11.2%  5.2%  2.9%  2.3%  1.9%  1.0%  0.4%
x264 [info]: ref B L1: 93.2%  6.8%
x264 [info]: kb/s:6544.28
x264 [total]: encoded 231553 frames, 2.92 fps, 6544.28 kb/s

Скриншоты

Source vs Encode



[Профиль] [ЛС]
Показать сообщения:    

Текущее время: Сегодня 16:36

Часовой пояс: GMT



Вы не можете начинать темы
Вы не можете отвечать на сообщения
Вы не можете редактировать свои сообщения
Вы не можете удалять свои сообщения
Вы не можете голосовать в опросах
Вы не можете прикреплять файлы к сообщениям
Вы не можете скачивать файлы