Мишень (Александр Зельдович) [2011, Россия, фантастика, драма, BDRip 1080p] Original Rus

 
Автор Сообщение

TorrentFilm ®

Пол:

Стаж: 2 года

Сообщений: 7741



Награды: Нет

Торрент-статистика

Создавать темы 01-Янв-2016 00:05

[Цитировать]

Мишень-- Год выпуска: 2011
Страна: Россия
Студия: РЕН-фильм
Жанр: фантастика, драма
Продолжительность: 02:40:48
Перевод: Оригинал
Cубтитры: нет
Оригинальная аудиодорожка: Русский--Режиссер: Александр Зельдович / Alexander Zeldovich
В ролях: Максим Суханов, Джастин Уоддэлл, Данила Козловский, Даниэла Стоянович, Виталий Кищенко, Нина Лощинина, Антон Хабаров, Сергей Потапов, Егор Корешков, Олег Ягодин
Описание: Россия, 2020 год. В стране торжествуют стабильность и процветание, найден уникальный вариант общественного устройства, гарантирующий справедливое распределение общественных благ.
Герои фильма принадлежат к элите страны. Они обеспечены, влиятельны и, казалось бы, счастливы. Но их молодость уходит, а любовь со временем потеряла былой накал. Они не могут с этим смириться и отправляются в горы Алтая, где, по слухам, есть заброшенный с советских времен астрофизический комплекс - накопитель космических частиц. Местные жители называют его проще - мишень. Тот, кто проводит в центре мишени какое-то время, вновь обретает молодость и остроту чувств.
В Москву герои возвращаются совсем другими, абсолютно счастливыми, людьми. Но вместе с чувством бесконечной свободы и силы, до предела обостряются черты характеров и скрытые страсти героев. Каждый из них оказывается один на один со своим взбунтовавшимся «я»...
--Доп. информация: «In the year 2020, a group of wealthy Moscovites travel to an abandoned astrophysics complex, rumoured to have enough power to halt the process of ageing»
-семпл-Тип релиза: BDRip 1080p
Формат: MKV
Видео кодек: MPEG-4 AVC Video
Аудио кодек: DTS
Видео: MPEG-4 AVC, 1920x1080 (16:9), at 24.000 fps, ~ 9000 kbps avg, High Profile 4.1
Аудио: DTS, 48 kHz, 3/2 (L,C,R,l,r) + LFE ch, ~1538 kbps avg [Russian]

MediaInfo

Формат : Matroska
Версия формата : Version 2
Размер файла : 11,8 Гбайт
Продолжительность : 2 ч. 40 м.
Общий поток : 10,5 Мбит/сек
Название фильма : Andrei
Дата кодирования : UTC 2012-03-09 01:57:48
Программа кодирования : mkvmerge v4.6.0 ('Still Crazy After All These Years') сборка от Mar 10 2011 02:50:32
Библиотека кодирования : libebml v1.2.0 + libmatroska v1.1.0
Видео
Идентификатор : 1
Формат : AVC
Формат/Информация : Advanced Video Codec
Профиль формата : High@L4.1
Параметр CABAC формата : Да
Параметр ReFrames формата : 4 кадра
Идентификатор кодека : V_MPEG4/ISO/AVC
Продолжительность : 2 ч. 40 м.
Битрейт : 9000 Кбит/сек
Ширина : 1920 пикселей
Высота : 1080 пикселей
Соотношение сторон : 16:9
Частота кадров : 24,000 кадра/сек
Цветовое пространство : YUV
Субдискретизация насыщенности : 4:2:0
Битовая глубина : 8 бит
Тип развёртки : Прогрессивная
Бит/(Пиксели*Кадры) : 0.181
Размер потока : 9,87 Гбайт (84%)
Заголовок : Mishen.2011.1080p.BluRay.DTS.Rus
Библиотека кодирования : x264 core 120 r2164 da19765
Настройки программы : cabac=1 / ref=4 / deblock=1:-3:-3 / analyse=0x3:0x113 / me=umh / subme=10 / psy=1 / psy_rd=1.00:0.15 / mixed_ref=1 / me_range=24 / chroma_me=1 / trellis=2 / 8x8dct=1 / cqm=0 / deadzone=21,11 / fast_pskip=1 / chroma_qp_offset=-3 / threads=6 / sliced_threads=0 / nr=0 / decimate=1 / interlaced=0 / bluray_compat=0 / constrained_intra=0 / bframes=7 / b_pyramid=2 / b_adapt=2 / b_bias=0 / direct=3 / weightb=1 / open_gop=0 / weightp=2 / keyint=240 / keyint_min=24 / scenecut=40 / intra_refresh=0 / rc=2pass / mbtree=0 / bitrate=9000 / ratetol=1.0 / qcomp=0.60 / qpmin=0 / qpmax=69 / qpstep=4 / cplxblur=20.0 / qblur=0.5 / ip_ratio=1.40 / pb_ratio=1.30 / aq=1:0.80
Язык : Russian
Аудио
Идентификатор : 2
Формат : DTS
Формат/Информация : Digital Theater Systems
Идентификатор кодека : A_DTS
Продолжительность : 2 ч. 40 м.
Вид битрейта : Постоянный
Битрейт : 1510 Кбит/сек
Каналы : 6 каналов
Расположение каналов : Front: L C R, Side: L R, LFE
Частота : 48,0 КГц
Битовая глубина : 24 бит
Метод сжатия : С потерями
Размер потока : 1,70 Гбайт (14%)
Заголовок : DTS / 5.1 / 1536 kbps
Язык : Russian

Source vs Encode

Source vs Encode


[Профиль] [ЛС]
Показать сообщения:    

Текущее время: Сегодня 08:12

Часовой пояс: GMT



Вы не можете начинать темы
Вы не можете отвечать на сообщения
Вы не можете редактировать свои сообщения
Вы не можете удалять свои сообщения
Вы не можете голосовать в опросах
Вы не можете прикреплять файлы к сообщениям
Вы не можете скачивать файлы