Мишень (Александр Зельдович) [2011, Россия, Фантастика, драма, Blu-ray disc 1080p] Original Rus

 
Автор Сообщение

painkiller ®

Стаж: 2 года 3 месяца

Сообщений: 582



Награды: Нет

Торрент-статистика

Создавать темы 15-Авг-2014 01:13

[Цитировать]

Мишень
Страна: Россия
Студия: РЕН-фильм
Жанр: Фантастика, драма
Год выпуска: 2011
Продолжительность: 02:40:48
Cубтитры: нет
Оригинальная аудиодорожка: русский
Режиссер: Александр Зельдович
В ролях: Максим Суханов, Джастин Уэдделл, Виталий Кищенко, Данила Козловский, Даниэла Стоянович, Нина Лощинина, Александра Богданова (III), Виталий Михальцов, Алена Полькина, Сергей Потапов (II), Игорь Серебряный, Антон Хабаров, Валерий Смирнов (II), Олег Ягодин, Наталья Батрак, Владимир Болотнов, Егор Корешков, Геннадий Поварухин, Олег Поплавский, Григорий Журавлев, Мария Фаддеева, Руслан Ягудин, Дарина Фаддеева, Константин Таран, Алексей Потапов, Сергей Лобынцев, Татьяна Косач-Брындина
Описание: Россия, 2020 год. В стране торжествуют стабильность и процветание, найден уникальный вариант общественного устройства, гарантирующий справедливое распределение общественных благ. Герои фильма принадлежат к элите страны. Они обеспечены, влиятельны и, казалось бы, счастливы. Но их молодость уходит, а любовь со временем потеряла былой накал. Они не могут с этим смириться и отправляются в горы Алтая, где, по слухам, есть заброшенный с советских времен астрофизический комплекс — накопитель космических частиц. Местные жители называют его проще — мишень. Тот, кто проводит в центре мишени какое-то время, вновь обретает молодость и остроту чувств. В Москву герои возвращаются совсем другими, абсолютно счастливыми, людьми. Но вместе с чувством бесконечной свободы и силы, до предела обостряются черты характеров и скрытые страсти героев. Каждый из них оказывается один на один со своим взбунтовавшимся «я»…
Сэмпл: http://www.sendspace.com/file/iwiftk
Тип релиза: Blu-ray disc
Контейнер: BDMV
Видео: MPEG-4 AVC Video 17500 kbps 1934x1080p / 24 fps / 16:9 / High Profile 4.1
Аудио: Dolby Digital Audio русский 448 kbps 5.1 / 48 kHz / 448 kbps

BDInfo

Disc Title: Mishen.2011.x264.Blu-Ray.(1080p)
Disc Size: 22 868 647 811 bytes
Protection: AACS
BD-Java: Yes
BDInfo: 0.5.8
Notes:
BDINFO HOME:
Cinema Squid
http://www.cinemasquid.com/blu-ray/tools/bdinfo
INCLUDES FORUMS REPORT FOR:
AVS Forum Blu-ray Audio and Video Specifications Thread
http://www.avsforum.com/avs-vb/showthread.php?t=1155731
********************
PLAYLIST: 00002.MPLS
********************
Total   Video
Title                                                           Codec   Length  Movie Size      Disc Size       Bitrate Bitrate Main Audio Track                          Secondary Audio Track
-----                                                           ------  ------- --------------  --------------  ------- ------- ------------------                        ---------------------
00002.MPLS                                                      AVC     2:40:48 22 709 563 392  22 868 647 811  18,83   17,50   DD AC3 5.1 448Kbps
DISC INFO:
Disc Title:     Mishen.2011.x264.Blu-Ray.(1080p)
Disc Size:      22 868 647 811 bytes
Protection:     AACS
BD-Java:        Yes
BDInfo:         0.5.8
PLAYLIST REPORT:
Name:                   00002.MPLS
Length:                 2:40:48.041 (h:m:s.ms)
Size:                   22 709 563 392 bytes
Total Bitrate:          18,83 Mbps
VIDEO:
Codec                   Bitrate             Description
-----                   -------             -----------
MPEG-4 AVC Video        17500 kbps          1080p / 24 fps / 16:9 / High Profile 4.1
AUDIO:
Codec                           Language        Bitrate         Description
-----                           --------        -------         -----------
Dolby Digital Audio             Russian         448 kbps        5.1 / 48 kHz / 448 kbps
FILES:
Name            Time In         Length          Size            Total Bitrate
----            -------         ------          ----            -------------
00002.M2TS      0:00:00.000     2:40:48.041     22 709 563 392  18 830
CHAPTERS:
Number          Time In         Length          Avg Video Rate  Max 1-Sec Rate  Max 1-Sec Time  Max 5-Sec Rate  Max 5-Sec Time  Max 10Sec Rate  Max 10Sec Time  Avg Frame Size  Max Frame Size  Max Frame Time
------          -------         ------          --------------  --------------  --------------  --------------  --------------  --------------  --------------  --------------  --------------  --------------
1               0:00:00.000     2:40:48.041     17 500 kbps     48 582 kbps     00:06:55.666    38 286 kbps     00:59:57.208    34 539 kbps     02:34:57.083    91 145 bytes    747 874 bytes   01:36:23.916
STREAM DIAGNOSTICS:
File            PID             Type            Codec           Language                Seconds                 Bitrate                 Bytes           Packets
----            ---             ----            -----           --------                --------------          --------------          -------------   -----
00002.M2TS      4113 (0x1011)   0x1B            AVC                                     9647,958                17 500                  21 104 767 271  114 835 216
00002.M2TS      4352 (0x1100)   0x81            AC3             rus (Russian)           9647,958                448                     540 285 871     3 015 015
QUICK SUMMARY:
Disc Title: Mishen.2011.x264.Blu-Ray.(1080p)
Disc Size: 22 868 647 811 bytes
Protection: AACS
BD-Java: Yes
Playlist: 00002.MPLS
Size: 22 709 563 392 bytes
Length: 2:40:48.041
Total Bitrate: 18,83 Mbps
Video: MPEG-4 AVC Video / 17500 kbps / 1080p / 24 fps / 16:9 / High Profile 4.1
Audio: Russian / Dolby Digital Audio / 5.1 / 48 kHz / 448 kbps
********************
PLAYLIST: 01002.MPLS
********************
Total   Video
Title                                                           Codec   Length  Movie Size      Disc Size       Bitrate Bitrate Main Audio Track                          Secondary Audio Track
-----                                                           ------  ------- --------------  --------------  ------- ------- ------------------                        ---------------------
01002.MPLS                                                      AVC     2:40:48 22 709 563 392  22 868 647 811  18,83   17,50   DD AC3 5.1 448Kbps
DISC INFO:
Disc Title:     Mishen.2011.x264.Blu-Ray.(1080p)
Disc Size:      22 868 647 811 bytes
Protection:     AACS
BD-Java:        Yes
BDInfo:         0.5.8
PLAYLIST REPORT:
Name:                   01002.MPLS
Length:                 2:40:48.041 (h:m:s.ms)
Size:                   22 709 563 392 bytes
Total Bitrate:          18,83 Mbps
VIDEO:
Codec                   Bitrate             Description
-----                   -------             -----------
MPEG-4 AVC Video        17500 kbps          1080p / 24 fps / 16:9 / High Profile 4.1
AUDIO:
Codec                           Language        Bitrate         Description
-----                           --------        -------         -----------
Dolby Digital Audio             Russian         448 kbps        5.1 / 48 kHz / 448 kbps
FILES:
Name            Time In         Length          Size            Total Bitrate
----            -------         ------          ----            -------------
00002.M2TS      0:00:00.000     2:40:48.041     22 709 563 392  18 830
CHAPTERS:
Number          Time In         Length          Avg Video Rate  Max 1-Sec Rate  Max 1-Sec Time  Max 5-Sec Rate  Max 5-Sec Time  Max 10Sec Rate  Max 10Sec Time  Avg Frame Size  Max Frame Size  Max Frame Time
------          -------         ------          --------------  --------------  --------------  --------------  --------------  --------------  --------------  --------------  --------------  --------------
1               0:00:00.000     0:17:09.208     19 400 kbps     48 582 kbps     00:06:55.666    34 324 kbps     00:06:54.250    33 172 kbps     00:04:32.791    101 039 bytes   597 566 bytes   00:06:52.708
2               0:17:09.208     0:19:55.458     16 617 kbps     36 446 kbps     00:22:20.999    32 954 kbps     00:22:20.083    31 991 kbps     00:22:19.666    86 545 bytes    543 334 bytes   00:36:34.208
3               0:37:04.666     0:17:06.000     13 810 kbps     45 472 kbps     00:45:18.958    31 674 kbps     00:45:19.375    27 339 kbps     00:44:54.750    71 929 bytes    625 420 bytes   00:45:19.750
4               0:54:10.666     0:15:08.624     18 503 kbps     48 266 kbps     00:59:57.208    38 286 kbps     00:59:57.208    30 082 kbps     00:59:57.208    96 369 bytes    742 027 bytes   01:00:05.666
5               1:09:19.291     0:16:22.125     18 090 kbps     42 377 kbps     01:15:41.791    31 212 kbps     01:09:27.708    30 384 kbps     01:09:22.416    94 225 bytes    686 387 bytes   01:18:06.750
6               1:25:41.416     0:17:47.500     22 768 kbps     40 023 kbps     01:27:34.666    34 593 kbps     01:34:06.541    32 860 kbps     01:27:15.708    118 585 bytes   747 874 bytes   01:36:23.916
7               1:43:28.916     0:17:16.875     15 775 kbps     41 264 kbps     01:45:30.999    32 214 kbps     01:44:35.125    31 256 kbps     01:44:34.749    82 160 bytes    591 646 bytes   01:46:45.583
8               2:00:45.791     0:15:50.750     18 539 kbps     39 369 kbps     02:05:50.249    32 315 kbps     02:15:34.541    31 713 kbps     02:15:29.583    96 558 bytes    519 756 bytes   02:01:15.291
9               2:16:36.541     0:24:11.500     15 136 kbps     44 367 kbps     02:35:00.833    36 955 kbps     02:34:57.458    34 539 kbps     02:34:57.083    78 838 bytes    569 421 bytes   02:19:51.416
STREAM DIAGNOSTICS:
File            PID             Type            Codec           Language                Seconds                 Bitrate                 Bytes           Packets
----            ---             ----            -----           --------                --------------          --------------          -------------   -----
00002.M2TS      4113 (0x1011)   0x1B            AVC                                     9647,958                17 500                  21 104 767 271  114 835 216
00002.M2TS      4352 (0x1100)   0x81            AC3             rus (Russian)           9647,958                448                     540 285 871     3 015 015
QUICK SUMMARY:
Disc Title: Mishen.2011.x264.Blu-Ray.(1080p)
Disc Size: 22 868 647 811 bytes
Protection: AACS
BD-Java: Yes
Playlist: 01002.MPLS
Size: 22 709 563 392 bytes
Length: 2:40:48.041
Total Bitrate: 18,83 Mbps
Video: MPEG-4 AVC Video / 17500 kbps / 1080p / 24 fps / 16:9 / High Profile 4.1
Audio: Russian / Dolby Digital Audio / 5.1 / 48 kHz / 448 kbps
Disc Title: Mishen.2011.x264.Blu-Ray.(1080p)
Disc Size: 22 868 647 811 bytes
Protection: AACS
BD-Java: Yes
BDInfo: 0.5.8
Notes:
BDINFO HOME:
Cinema Squid
http://www.cinemasquid.com/blu-ray/tools/bdinfo
INCLUDES FORUMS REPORT FOR:
AVS Forum Blu-ray Audio and Video Specifications Thread
http://www.avsforum.com/avs-vb/showthread.php?t=1155731
********************
PLAYLIST: 00002.MPLS
********************
Total   Video
Title                                                           Codec   Length  Movie Size      Disc Size       Bitrate Bitrate Main Audio Track                          Secondary Audio Track
-----                                                           ------  ------- --------------  --------------  ------- ------- ------------------                        ---------------------
00002.MPLS                                                      AVC     2:40:48 22 709 563 392  22 868 647 811  18,83   17,50   DD AC3 5.1 448Kbps
DISC INFO:
Disc Title:     Mishen.2011.x264.Blu-Ray.(1080p)
Disc Size:      22 868 647 811 bytes
Protection:     AACS
BD-Java:        Yes
BDInfo:         0.5.8
PLAYLIST REPORT:
Name:                   00002.MPLS
Length:                 2:40:48.041 (h:m:s.ms)
Size:                   22 709 563 392 bytes
Total Bitrate:          18,83 Mbps
VIDEO:
Codec                   Bitrate             Description
-----                   -------             -----------
MPEG-4 AVC Video        17500 kbps          1080p / 24 fps / 16:9 / High Profile 4.1
AUDIO:
Codec                           Language        Bitrate         Description
-----                           --------        -------         -----------
Dolby Digital Audio             Russian         448 kbps        5.1 / 48 kHz / 448 kbps
FILES:
Name            Time In         Length          Size            Total Bitrate
----            -------         ------          ----            -------------
00002.M2TS      0:00:00.000     2:40:48.041     22 709 563 392  18 830
CHAPTERS:
Number          Time In         Length          Avg Video Rate  Max 1-Sec Rate  Max 1-Sec Time  Max 5-Sec Rate  Max 5-Sec Time  Max 10Sec Rate  Max 10Sec Time  Avg Frame Size  Max Frame Size  Max Frame Time
------          -------         ------          --------------  --------------  --------------  --------------  --------------  --------------  --------------  --------------  --------------  --------------
1               0:00:00.000     2:40:48.041     17 500 kbps     48 582 kbps     00:06:55.666    38 286 kbps     00:59:57.208    34 539 kbps     02:34:57.083    91 145 bytes    747 874 bytes   01:36:23.916
STREAM DIAGNOSTICS:
File            PID             Type            Codec           Language                Seconds                 Bitrate                 Bytes           Packets
----            ---             ----            -----           --------                --------------          --------------          -------------   -----
00002.M2TS      4113 (0x1011)   0x1B            AVC                                     9647,958                17 500                  21 104 767 271  114 835 216
00002.M2TS      4352 (0x1100)   0x81            AC3             rus (Russian)           9647,958                448                     540 285 871     3 015 015
QUICK SUMMARY:
Disc Title: Mishen.2011.x264.Blu-Ray.(1080p)
Disc Size: 22 868 647 811 bytes
Protection: AACS
BD-Java: Yes
Playlist: 00002.MPLS
Size: 22 709 563 392 bytes
Length: 2:40:48.041
Total Bitrate: 18,83 Mbps
Video: MPEG-4 AVC Video / 17500 kbps / 1080p / 24 fps / 16:9 / High Profile 4.1
Audio: Russian / Dolby Digital Audio / 5.1 / 48 kHz / 448 kbps
********************
PLAYLIST: 01002.MPLS
********************
Total   Video
Title                                                           Codec   Length  Movie Size      Disc Size       Bitrate Bitrate Main Audio Track                          Secondary Audio Track
-----                                                           ------  ------- --------------  --------------  ------- ------- ------------------                        ---------------------
01002.MPLS                                                      AVC     2:40:48 22 709 563 392  22 868 647 811  18,83   17,50   DD AC3 5.1 448Kbps
DISC INFO:
Disc Title:     Mishen.2011.x264.Blu-Ray.(1080p)
Disc Size:      22 868 647 811 bytes
Protection:     AACS
BD-Java:        Yes
BDInfo:         0.5.8
PLAYLIST REPORT:
Name:                   01002.MPLS
Length:                 2:40:48.041 (h:m:s.ms)
Size:                   22 709 563 392 bytes
Total Bitrate:          18,83 Mbps
VIDEO:
Codec                   Bitrate             Description
-----                   -------             -----------
MPEG-4 AVC Video        17500 kbps          1080p / 24 fps / 16:9 / High Profile 4.1
AUDIO:
Codec                           Language        Bitrate         Description
-----                           --------        -------         -----------
Dolby Digital Audio             Russian         448 kbps        5.1 / 48 kHz / 448 kbps
FILES:
Name            Time In         Length          Size            Total Bitrate
----            -------         ------          ----            -------------
00002.M2TS      0:00:00.000     2:40:48.041     22 709 563 392  18 830
CHAPTERS:
Number          Time In         Length          Avg Video Rate  Max 1-Sec Rate  Max 1-Sec Time  Max 5-Sec Rate  Max 5-Sec Time  Max 10Sec Rate  Max 10Sec Time  Avg Frame Size  Max Frame Size  Max Frame Time
------          -------         ------          --------------  --------------  --------------  --------------  --------------  --------------  --------------  --------------  --------------  --------------
1               0:00:00.000     0:17:09.208     19 400 kbps     48 582 kbps     00:06:55.666    34 324 kbps     00:06:54.250    33 172 kbps     00:04:32.791    101 039 bytes   597 566 bytes   00:06:52.708
2               0:17:09.208     0:19:55.458     16 617 kbps     36 446 kbps     00:22:20.999    32 954 kbps     00:22:20.083    31 991 kbps     00:22:19.666    86 545 bytes    543 334 bytes   00:36:34.208
3               0:37:04.666     0:17:06.000     13 810 kbps     45 472 kbps     00:45:18.958    31 674 kbps     00:45:19.375    27 339 kbps     00:44:54.750    71 929 bytes    625 420 bytes   00:45:19.750
4               0:54:10.666     0:15:08.624     18 503 kbps     48 266 kbps     00:59:57.208    38 286 kbps     00:59:57.208    30 082 kbps     00:59:57.208    96 369 bytes    742 027 bytes   01:00:05.666
5               1:09:19.291     0:16:22.125     18 090 kbps     42 377 kbps     01:15:41.791    31 212 kbps     01:09:27.708    30 384 kbps     01:09:22.416    94 225 bytes    686 387 bytes   01:18:06.750
6               1:25:41.416     0:17:47.500     22 768 kbps     40 023 kbps     01:27:34.666    34 593 kbps     01:34:06.541    32 860 kbps     01:27:15.708    118 585 bytes   747 874 bytes   01:36:23.916
7               1:43:28.916     0:17:16.875     15 775 kbps     41 264 kbps     01:45:30.999    32 214 kbps     01:44:35.125    31 256 kbps     01:44:34.749    82 160 bytes    591 646 bytes   01:46:45.583
8               2:00:45.791     0:15:50.750     18 539 kbps     39 369 kbps     02:05:50.249    32 315 kbps     02:15:34.541    31 713 kbps     02:15:29.583    96 558 bytes    519 756 bytes   02:01:15.291
9               2:16:36.541     0:24:11.500     15 136 kbps     44 367 kbps     02:35:00.833    36 955 kbps     02:34:57.458    34 539 kbps     02:34:57.083    78 838 bytes    569 421 bytes   02:19:51.416
STREAM DIAGNOSTICS:
File            PID             Type            Codec           Language                Seconds                 Bitrate                 Bytes           Packets
----            ---             ----            -----           --------                --------------          --------------          -------------   -----
00002.M2TS      4113 (0x1011)   0x1B            AVC                                     9647,958                17 500                  21 104 767 271  114 835 216
00002.M2TS      4352 (0x1100)   0x81            AC3             rus (Russian)           9647,958                448                     540 285 871     3 015 015
QUICK SUMMARY:
Disc Title: Mishen.2011.x264.Blu-Ray.(1080p)
Disc Size: 22 868 647 811 bytes
Protection: AACS
BD-Java: Yes
Playlist: 01002.MPLS
Size: 22 709 563 392 bytes
Length: 2:40:48.041
Total Bitrate: 18,83 Mbps
Video: MPEG-4 AVC Video / 17500 kbps / 1080p / 24 fps / 16:9 / High Profile 4.1
Audio: Russian / Dolby Digital Audio / 5.1 / 48 kHz / 448 kbps

Скриншоты меню

Скриншоты

[Профиль] [ЛС]
Показать сообщения:    

Текущее время: Сегодня 08:12

Часовой пояс: GMT



Вы не можете начинать темы
Вы не можете отвечать на сообщения
Вы не можете редактировать свои сообщения
Вы не можете удалять свои сообщения
Вы не можете голосовать в опросах
Вы не можете прикреплять файлы к сообщениям
Вы не можете скачивать файлы