(Шансон) Михаил Круг - Серия «SUPER HITS COLLECTION. 20 лучших песен» - 2013, FLAC (image+.cue), lossless

 
Автор Сообщение

sergej644 ®

Пол:

Стаж: 4 года 11 месяцев

Сообщений: 6041

Откуда: Soviet Union



Награды: Нет

Торрент-статистика

Создавать темы 24-Окт-2014 08:21

[Цитировать]

Михаил Круг / Серия «SUPER HITS COLLECTION. 20 лучших песен»
Жанр: Шансон
Страна-производитель диска: Россия
Год издания: 2013
Издатель (лейбл): Классик Компани
Страна: Россия
Аудиокодек: FLAC (*.flac)
Тип рипа: image+.cue
Битрейт аудио: lossless
Продолжительность: 01:18:43
Источник (релизер): Yrok
Наличие сканов в содержимом раздачи: да
Треклист:
01. Магадан
02. Приходите в мой дом
03. Студентка
04. Владимирский централ
05. Только для тебя
06. Исповедь
07. Купола
08. Пусти меня, мама
09. Постой душа
10. Всё сбудется
11. Жиган-лимон
12. Девочка-пай
13. Девочка-пай 2
14. Письмо маме
15. Раз,два,три, по почкам
16. Прокурору зелёному-слава!
17. Роза
18. Не спалила, любила
19. Честный вор
20. Кольщик

Лог создания рипа

Exact Audio Copy V1.0 beta 1 from 15. November 2010
Отчёт EAC об извлечении, выполненном 20. апреля 2013, 15:23
Михаил Круг / «SUPER HITS COLLECTION»
Дисковод: Optiarc DVD RW AD-7260S   Adapter: 1  ID: 0
Режим чтения                 : Достоверность
Использование точного потока : Да
Отключение кэша аудио        : Да
Использование указателей C2  : Нет
Коррекция смещения при чтении                     : 48
Способность читать области Lead-in и Lead-out     : Нет
Заполнение пропущенных сэмплов тишиной            : Да
Удаление блоков с тишиной в начале и конце        : Нет
При вычислениях CRC использовались нулевые сэмплы : Да
Интерфейс                                         : Встроенный Win32-интерфейс для Win NT/2000
Выходной формат : Внутренние WAV-операции
Формат сэмплов  : 44.100 Гц; 16 бит; стерео
TOC извлечённого CD
     Трек |   Старт  | Длительность | Начальный сектор | Конечный сектор
    ---------------------------------------------------------------------
       1  |  0:00.00 |    4:23.57   |           0      |      19781
       2  |  4:23.57 |    3:39.08   |       19782      |      36214
       3  |  8:02.65 |    3:57.10   |       36215      |      53999
       4  | 12:00.00 |    4:28.30   |       54000      |      74129
       5  | 16:28.30 |    2:56.69   |       74130      |      87398
       6  | 19:25.24 |    4:53.24   |       87399      |     109397
       7  | 24:18.48 |    4:01.74   |      109398      |     127546
       8  | 28:20.47 |    2:52.13   |      127547      |     140459
       9  | 31:12.60 |    4:06.24   |      140460      |     158933
      10  | 35:19.09 |    2:45.56   |      158934      |     171364
      11  | 38:04.65 |    2:54.40   |      171365      |     184454
      12  | 40:59.30 |    4:18.33   |      184455      |     203837
      13  | 45:17.63 |    3:59.03   |      203838      |     221765
      14  | 49:16.66 |    4:17.18   |      221766      |     241058
      15  | 53:34.09 |    2:56.37   |      241059      |     254295
      16  | 56:30.46 |    5:40.71   |      254296      |     279866
      17  | 62:11.42 |    4:47.25   |      279867      |     301416
      18  | 66:58.67 |    4:11.56   |      301417      |     320297
      19  | 71:10.48 |    3:19.34   |      320298      |     335256
      20  | 74:30.07 |    4:12.71   |      335257      |     354227
Характеристики диапазона извлечения и сообщения об ошибках
Выбранный диапазон
     Имя файла C:\Users\Анатолий\Desktop\Музыка\Круг Михаил - «SUPER HITS COLLECTION»  (2013г.)\Михаил Круг - «SUPER HITS COLLECTION».wav
     Пиковый уровень 99.1 %
0.1 X
     Качество диапазона 100.0 %
     CRC теста B46C81AD
     CRC копии B46C81AD
     Копирование... OK
Ошибок не произошло
AccurateRip: сводка
Трек  1  нет в базе данных
Трек  2  нет в базе данных
Трек  3  нет в базе данных
Трек  4  нет в базе данных
Трек  5  нет в базе данных
Трек  6  нет в базе данных
Трек  7  нет в базе данных
Трек  8  нет в базе данных
Трек  9  нет в базе данных
Трек 10  нет в базе данных
Трек 11  нет в базе данных
Трек 12  нет в базе данных
Трек 13  нет в базе данных
Трек 14  нет в базе данных
Трек 15  нет в базе данных
Трек 16  нет в базе данных
Трек 17  нет в базе данных
Трек 18  нет в базе данных
Трек 19  нет в базе данных
Трек 20  нет в базе данных
Ни одного трека нет в базе AccurateRip
Конец отчёта
====  C33F54ED83655E67FE42ED6B68E056D9F3A983FB3DCBA204F9E496E5907B20DA ====

Лог проверки качества

AUDIOCHECKER v2.0 beta (build 457) - by Dester - opdester@freemail.hu
~~~~~~~~~~~~~~~~~~~~~~~~~~~~~~~~~~
-=== НЕ РЕДАКТИРУЙТЕ ЭТОТ ФАЙЛ! ===-
Путь: ...\Михаил Круг - SUPER HITS COLLECTION. 20 лучших песен (2013) (Lossless)
1 -=- Михаил Круг - «SUPER HITS COLLECTION».flac -=- CDDA (100%)
135712116

Скриншот спектра частот

--
[Профиль] [ЛС]

Создавать темы 13-Авг-2015 10:06 (спустя 9 месяцев 20 дней)

Топик был перенесен из форума Отечественная в форум Сhanson
sergej644
 
Кто просматривает тему:

Показать сообщения:    

Текущее время: Сегодня 14:47

Часовой пояс: GMT



Вы не можете начинать темы
Вы не можете отвечать на сообщения
Вы не можете редактировать свои сообщения
Вы не можете удалять свои сообщения
Вы не можете голосовать в опросах
Вы не можете прикреплять файлы к сообщениям
Вы не можете скачивать файлы