Михаил Задорнов. Неформат 55 (Война США с Россией, Путин, НАТО, Санкции) (2014.07.25) IPTVRip

 
Автор Сообщение

sergej644 ®

Пол:

Стаж: 4 года 11 месяцев

Сообщений: 6045

Откуда: Soviet Union



Награды: Нет

Торрент-статистика

Создавать темы 04-Ноя-2014 09:49

[Цитировать]

- Михаил Задорнов. Неформат 55 (Война США с Россией, Путин, НАТО, Санкции) (2014) IPTVRip - Режиссер / Телекомпания: Юмор FM
Русское название: Михаил Задорнов
Год выпуска: 2014
Жанр: Юмор
Описание:
Главный вопрос: будет ли война России с Америкой? Что ждать от Путина, Обамы, как поведет себя НАТО и Украина дальше?
Режиссёр: Михаил Задорнов
Продолжительность: ~ 01:35:19
Видеокодек: XVID
Битрейт видео: ~1500 kb/s
Размер кадра: 720 x 400
Качество видео: IPTVRip
Аудиокодек: AC-3, 1ch.
Битрейт аудио: 192 kb/s

MediaInfo

Формат : AVI
Формат/Информация : Audio Video Interleave
Размер файла : 1,13 Гбайт
Продолжительность : 1 ч. 35 м.
Общий поток : 1699 Кбит/сек
Программа кодирования : TMPGEnc Video Mastering Works 5 Version. 5.0.6.38
Библиотека кодирования : TMPGEnc Video Mastering Works 5 Version. 5.0.6.38
Видео
Идентификатор : 0
Формат : MPEG-4 Visual
Профиль формата : Advanced Simple@L5
Параметр BVOP формата : 2
Параметр QPel формата : Нет
Параметр GMC формата : Без точки перехода
Параметр матрицы формата : Default (H.263)
Режим смешивания : Сжатый битовый поток
Идентификатор кодека : XVID
Идентификатор кодека/Подсказка : XviD
Продолжительность : 1 ч. 35 м.
Битрейт : 1500 Кбит/сек
Ширина : 720 пикселей
Высота : 400 пикселей
Соотношение сторон : 16:9
Частота кадров : 25,000 кадров/сек
Цветовое пространство : YUV
Субдискретизация насыщенности : 4:2:0
Битовая глубина : 8 бит
Тип развёртки : Прогрессивная
Метод сжатия : С потерями
Бит/(Пиксели*Кадры) : 0.208
Размер потока : 1022 Мбайт (88%)
Библиотека кодирования : XviD 64
Аудио
Идентификатор : 1
Формат : AC-3
Формат/Информация : Audio Coding 3
Расширение режима : CM (complete main)
Идентификатор кодека : 2000
Продолжительность : 1 ч. 35 м.
Вид битрейта : Постоянный
Битрейт : 192 Кбит/сек
Каналы : 1 канал
Расположение каналов : Front: C
Частота : 44,1 КГц
Битовая глубина : 16 бит
Метод сжатия : С потерями
Размер потока : 131 Мбайт (11%)
Выравнивание : Соединение по промежуткам
Продолжительность промежутка : 160 мс. (4,01 видеокадра)
Время предзагрузки промежутка : 313 мс.
Скриншоты: --
[Профиль] [ЛС]
Показать сообщения:    

Текущее время: Сегодня 00:14

Часовой пояс: GMT



Вы не можете начинать темы
Вы не можете отвечать на сообщения
Вы не можете редактировать свои сообщения
Вы не можете удалять свои сообщения
Вы не можете голосовать в опросах
Вы не можете прикреплять файлы к сообщениям
Вы не можете скачивать файлы