Михаил Галустян. Понять и Простить (Илья Ульянов) [2015, Документальный, HDTV 720p]

 
Автор Сообщение

TorrentFilm ®

Пол:

Стаж: 2 года

Сообщений: 7741



Награды: Нет

Торрент-статистика

Создавать темы 16-Июл-2015 00:08

[Цитировать]

Михаил Галустян. Понять и Простить- Год выпуска: 2015
Страна: Россия
Студия: Первый Канал HD | ООО "Контраст"
Жанр: Документальный
Продолжительность: 0:49:51
Продюсеры: Андрей Сычев, Олег Вольнов
Автор: Олеся Куприна
Режиссер: Илья Ульянов-Описание: Михаил Галустян (кстати, его настоящее имя Ншан) ассоциируется у всех прежде всего со смехом. Образы, созданные им в кино и на телевидении, всегда комичны. Он был такой с самого детства – любил смешить одноклассников, играл в школьных спектаклях и еще в 10 классе возглавил школьную команду КВН. "Ты такой смешной" – лучший комплимент для Галустяна.-Автор рипа: lrn
Автор записи: riper.am
Сэмпл: sendfile-Тип релиза: HDTV 720p
Контейнер: MKV
Видео: 1280x720 (16:9), 25,000 fps, H264, ~4000 kbps avg, ~0.174 bit/pixel
Аудио: 48 kHz, AC3 Dolby Digital, 2/0 (L,R) ch, ~192.00 kbps avg-

MediaInfo

GeneralUnique ID : 181622583559339250095845733417541315632 (0x88A33CBACD9DB1BDA2C202B508962C30)
Complete name : E:\uTorrent.Temp\Temp\Mihail.Galustyan.Ponyat.i.Prostit.2015.HDTV.720p.x264-lrn.mkv
Format : Matroska
Format version : Version 4 / Version 2
File size : 1.46 GiB
Duration : 49mn 51s
Overall bit rate : 4 193 Kbps
Movie name : Mihail.Galustyan.Ponyat.i.Prostit.2015.HDTV.720p.x264-lrn
Encoded date : UTC 2010-02-22 21:41:31
Writing application : mkvmerge v5.9.0 ('On The Loose') built on Dec 9 2012 15:37:01
Writing library : libebml v1.3.0 + libmatroska v1.4.0
DURATION : 00:49:51.760000000
NUMBER_OF_FRAMES : 74794
NUMBER_OF_BYTES : 1495681206_
STATISTICS_WRITING_APP : mkvmerge v7.7.0 ('Six Voices') 32bit built on Feb 28 2015 23:23:00_
STATISTICS_WRITING_DATE_UT : 2015-07-11 12:02:25_
STATISTICS_TAGS : BPS
DURATION NUMBER_OF_FRAMES NUMBER_OF_BYTES
VideoID : 1
Format : AVC
Format/Info : Advanced Video Codec
Format profile : High@L4.1
Format settings, CABAC : Yes
Format settings, ReFrames : 8 frames
Codec ID : V_MPEG4/ISO/AVC
Duration : 49mn 51s
Bit rate : 4 000 Kbps
Width : 1 280 pixels
Height : 720 pixels
Display aspect ratio : 16:9
Frame rate mode : Constant
Frame rate : 25.000 fps
Color space : YUV
Chroma subsampling : 4:2:0
Bit depth : 8 bits
Scan type : ProgressiveBits/(Pixel*Frame) : 0.174Stream size : 1.36 GiB (93%)Writing library : x264 core 146 r2538 121396cEncoding settings : cabac=1 / ref=8 / deblock=1:-3:-3 / analyse=0x3:0x133 / me=umh / subme=9 / psy=1 / psy_rd=1.00:0.00 / mixed_ref=1 / me_range=32 / chroma_me=1 / trellis=2 / 8x8dct=1 / cqm=0 / deadzone=21,11 / fast_pskip=1 / chroma_qp_offset=-2 / threads=12 / lookahead_threads=2 / sliced_threads=0 / nr=0 / decimate=1 / interlaced=0 / bluray_compat=0 / constrained_intra=0 / bframes=8 / b_pyramid=2 / b_adapt=2 / b_bias=0 / direct=3 / weightb=1 / open_gop=0 / weightp=2 / keyint=250 / keyint_min=25 / scenecut=40 / intra_refresh=0 / rc_lookahead=50 / rc=2pass / mbtree=1 / bitrate=4000 / ratetol=1.0 / qcomp=0.60 / qpmin=0 / qpmax=69 / qpstep=4 / cplxblur=20.0 / qblur=0.5 / vbv_maxrate=62500 / vbv_bufsize=78125 / nal_hrd=none / filler=0 / ip_ratio=1.40 / aq=1:1.00
Default : Yes
Forced : No
AudioID : 2
Format : AC-3
Format/Info : Audio Coding 3
Mode extension : CM (complete main)
Format settings, Endianness : Big
Codec ID : A_AC3
Duration : 49mn 51s
Bit rate mode : Constant
Bit rate : 192 Kbps
Channel(s) : 2 channels
Channel positions : Front: L R
Sampling rate : 48.0 KHz
Compression mode : Lossy
Stream size : 68.5 MiB (5%)
Language : Russian
Default : Yes
Forced : No

x264 log

Скриншоты

-
[Профиль] [ЛС]
Показать сообщения:    

Текущее время: Сегодня 23:29

Часовой пояс: GMT



Вы не можете начинать темы
Вы не можете отвечать на сообщения
Вы не можете редактировать свои сообщения
Вы не можете удалять свои сообщения
Вы не можете голосовать в опросах
Вы не можете прикреплять файлы к сообщениям
Вы не можете скачивать файлы