Мифика: Некромант / Mythica: The Necromancer (2015) BDRemux 1080p от ExKinoRay | P

 
Автор Сообщение

Russian Mafia ®

Пол:

Стаж: 1 год 8 месяцев

Сообщений: 4253



Награды: 10 (Подробнее)

Mega Seeder 4 (Количество: 1) За внесенный вклад в развитие сайта (Количество: 1) Top Releaser 4 (Количество: 1)
Торрент-статистика

Создавать темы 15-Сен-2016 10:01

[Цитировать]

Информация о фильме
Название: Мифика: Некромант
Оригинальное название: Mythica: The Necromancer
Год выхода: 2015
Жанр: Фэнтези, боевик, приключения
Режиссер: А. Тодд Смит
В ролях: Мелани Стоун, Адам Джонсон, Джейк Стормоен, Никки Поснер, Филип Броди, Кевин Сорбо, Дэвей Моррисон, Роберт Джейн, Кристофер Робин Миллер, Джофф Хансен
О фильме:
Молодая волшебница Марек, рожденная с темной способностью к некромантии, учится использовать во благо ту силу, которая способна погубить ее саму. Вместе с командой друзей она пытается помешать злодейским планам Темного Властелина.

Страна: США
Студия: Arrowstorm Entertainment, Bellpond Films
Продолжительность: 01:35:15
Перевод: Профессиональный многоголосый (закадровый) | Официальный звук
Файл
Кодек: MPEG-4
Качество: BDRemux 1080p
Видео: 1920x1080, 29.1 Mbit/s, 23.976 fps
Звук:
Аудио #01: 48 kHz, AC3, 2.0, 192 Kbps | Профессиональный многоголосый (закадровый) | Официальный звук |
Аудио #02: 48 kHz, DTS-HD MA, 5.1, 2048 kbps | Оригинал |

MI

Общее
Уникальный идентификатор : 174821409978157430428634648517985771556 (0x838560FBA35C3F709FEED5CB08B52024)
Полное имя : G:VideoMythica.The.Necromancer.2015.BDREMUX.1080p.ExKinoRay.mkv
Формат : Matroska
Версия формата : Version 4 / Version 2
Размер файла : 20,8 Гбайт
Продолжительность : 1 ч. 35 м.
Режим общего битрейта : Переменный
Общий поток : 31,3 Мбит/сек
Название фильма : build by ***селезень***
Дата кодирования : UTC 2016-09-15 07:15:00
Программа кодирования : mkvmerge v8.3.0 ('Over the Horizon') 64bit
Библиотека кодирования : libebml v1.3.1 + libmatroska v1.4.2
Видео
Идентификатор : 1
Формат : AVC
Формат/Информация : Advanced Video Codec
Профиль формата : High@L4.1
Параметр CABAC формата : Да
Параметр ReFrames формата : 4 кадра
Идентификатор кодека : V_MPEG4/ISO/AVC
Продолжительность : 1 ч. 35 м.
Вид битрейта : Переменный
Битрейт : 29,1 Мбит/сек
Максимальный битрейт : 32,0 Мбит/сек
Ширина : 1920 пикселей
Высота : 1080 пикселей
Соотношение сторон : 16:9
Режим частоты кадров : Постоянный
Частота кадров : 23,976 (24000/1001) кадра/сек
Цветовое пространство : YUV
Субдискретизация насыщенности : 4:2:0
Битовая глубина : 8 бит
Тип развёртки : Прогрессивная
Бит/(Пиксели*Кадры) : 0.586
Размер потока : 19,4 Гбайт (93%)
Заголовок : build by ***селезень***
Язык : English
Default : Нет
Forced : Нет
Аудио #1
Идентификатор : 2
Формат : AC-3
Формат/Информация : Audio Coding 3
Расширение режима : CM (complete main)
Параметр Endianness формата : Big
Идентификатор кодека : A_AC3
Продолжительность : 1 ч. 35 м.
Вид битрейта : Постоянный
Битрейт : 192 Кбит/сек
Каналы : 2 канала
Расположение каналов : Front: L R
Частота : 48,0 КГц
Частота кадров : 31,250 кадров/сек (1536 spf)
Метод сжатия : С потерями
Размер потока : 131 Мбайт (1%)
Язык : Russian
Default : Да
Forced : Нет
Аудио #2
Идентификатор : 3
Формат : DTS
Формат/Информация : Digital Theater Systems
Профиль формата : MA / Core
Режим : 16
Параметр Endianness формата : Big
Идентификатор кодека : A_DTS
Продолжительность : 1 ч. 35 м.
Вид битрейта : Переменный / Постоянный
Битрейт : 2048 Кбит/сек / 1509 Кбит/сек
Каналы : 6 каналов
Расположение каналов : Front: L C R, Side: L R, LFE
Частота : 48,0 КГц
Частота кадров : 93,750 кадра/сек (512 spf)
Битовая глубина : 16 бит
Метод сжатия : Без потерь / Lossy
Размер потока : 1,34 Гбайт (6%)
Язык : English
Default : Нет
Forced : Нет
Меню
00:00:00.000 : en:Chapter 01
00:07:21.607 : en:Chapter 02
00:17:10.487 : en:Chapter 03
00:24:49.488 : en:Chapter 04
00:33:46.858 : en:Chapter 05
00:42:12.404 : en:Chapter 06
00:50:02.874 : en:Chapter 07
00:57:13.513 : en:Chapter 08
01:04:33.077 : en:Chapter 09
01:12:58.832 : en:Chapter 10
01:20:49.469 : en:Chapter 11
01:31:34.739 : en:Chapter 12

Скриншоты

Релиз от: Автор релиза:
[Профиль] [ЛС]
Кто просматривает тему:

Форум Тема Автор Размер
Фильмы 2016 года Мифика. Богоубийца / Mythica: The Godslayer (2016) WEBRip | Line достали все 1.45 GB
Фильмы (HD DVD, Blu-ray и BDRemux) Мифика: Задание для героев / Mythica: A Quest for Heroes (2015) BDRemux 1080p | P Russian Mafia 14.55 GB
Фильмы (HD Rips | 720p, 1080p) Мифика: Задание для героев / Mythica: A Quest for Heroes (2015) BDRip 720p | P достали все 3.11 GB
Фильмы 2015 года Мифика: Задание для героев / Mythica: A Quest for Heroes (ПМ) (Энн К. Блэк) [2015 г., Фэнтези, HDRip] достали все 1.45 GB
Фильмы 2015 года Мифика: Задание для героев / Mythica: A Quest for Heroes (Энн К. Блэк / Anne K. Black) [2015, США, Фэнтези, HDRip] VO TorrentFilm 1.29 GB
R.G.TorrentFilm Video Мифика: Задание для героев / Mythica: A Quest for Heroes (Энн К. Блэк / Anne K. Black) [2015, США, фэнтези, боевик, приключения, HDRip] MVO AleksSin 746 MB
Фильмы 2015 года Мифика: Задание для героев / Mythica: A Quest for Heroes (Энн К. Блэк / Anne K. Black) [2015, США, фэнтези, приключения, BDRip] VO (datynet) + Original TorrentFilm 1.46 GB
R.G.TorrentFilm Video Мифика: Задание для героев / Mythica: A Quest for Heroes (Энн К. Блэк / Anne K. Black) [2015, США, энтези, приключения, HDRip] MVO AleksSin 1.45 GB
Показать сообщения:    

Текущее время: Сегодня 08:25

Часовой пояс: GMT



Вы не можете начинать темы
Вы не можете отвечать на сообщения
Вы не можете редактировать свои сообщения
Вы не можете удалять свои сообщения
Вы не можете голосовать в опросах
Вы не можете прикреплять файлы к сообщениям
Вы не можете скачивать файлы