Мифика: Некромант / Mythica: The Necromancer (2015) WEB-DL 1080p | Р

 
Автор Сообщение

достали все ®

Пол:

Стаж: 1 год 8 месяцев

Сообщений: 6591



Награды: 12 (Подробнее)

Mega Releaser 1 (Количество: 1) За внесенный вклад в развитие сайта (Количество: 1) Mega Seeder 4 (Количество: 1)
Торрент-статистика

Создавать темы 10-Июн-2016 09:33

[Цитировать]

Мифика: Некромант / Mythica: The Necromancer
Страна: США
Производство: Arrowstorm Entertainment, Bellpond Films
Год выпуска: 2015
Жанр: фэнтези, боевик, приключения
Продолжительность: 01:35:19
Режиссер: А. Тодд Смит
Авторы сценария: Джейсон Фоллер, Лиска Остойич, Джастин Патридж
В ролях: Мелани Стоун, Адам Джонсон, Джейк Стормоен, Никки Поснер, Филип Броди, Кевин Сорбо, Дэвей Моррисон, Роберт Джейн
Описание: Молодая волшебница Марек, рожденная с темной способностью к некромантии, учится использовать во благо ту силу, которая способна погубить её саму. Вместе с друзьями она пытается помешать злодейским планам Тёмного Властелина...

Перевод: Профессиональный (многоголосый, закадровый) | официальный звук
Субтитры: нет-Качество: WEB-DL 1080p
Формат: МКV
Видео кодек: AVC
Аудио кодек: АС3
Видео: 1920x1080 (16:9), 23.976 fps, MPEG-4 AVC ~3 761 kbps avg
Аудио №1: 48.0 kHz, AC3 Dolby Digital, 2/0 (L,R) ch, ~192 kbps | RUS
Аудио №2: 48.0 kHz, AC3 Dolby Digital, 2/0 (L,R) ch, ~192 kbps | ENG
Дата премьеры (мир): 11 декабря 2015

Media Info

General
Unique ID : 184919684444955385792903488266899626209 (0x8B1E3C5AA182C78AA7061E8F5E4918E1)
Format : Matroska
Format version : Version 4 / Version 2
Overall bit rate : 4 229 Kbps
Encoded date : UTC 2016-06-10 03:22:10
Writing application : mkvmerge v6.8.0 ('Theme for Great Cities') 64bit built on Mar 2 2014 21:34:26
Writing library : libebml v1.3.0 + libmatroska v1.4.1
Video
ID : 1
Format : AVC
Format/Info : Advanced Video Codec
Format profile : High@L5
Format settings, CABAC : Yes
Format settings, ReFrames : 8 frames
Codec ID : V_MPEG4/ISO/AVC
Bit rate : 3 761 Kbps
Width : 1 920 pixels
Height : 1 080 pixels
Display aspect ratio : 16:9
Frame rate mode : Constant
Frame rate : 23.976 fps
Color space : YUV
Chroma subsampling : 4:2:0
Bit depth : 8 bits
Scan type : Progressive
Bits/(Pixel*Frame) : 0.076
Stream size : 27.3 MiB (89%)
Default : Yes
Forced : No
Color range : Limited
Color primaries : BT.709
Transfer characteristics : BT.709
Matrix coefficients : BT.709
Audio #1
ID : 2
Format : AC-3
Format/Info : Audio Coding 3
Mode extension : CM (complete main)
Format settings, Endianness : Big
Codec ID : A_AC3
Bit rate mode : Constant
Bit rate : 192 Kbps
Channel(s) : 2 channels
Channel positions : Front: L R
Sampling rate : 48.0 KHz
Compression mode : Lossy
Stream size : 1.40 MiB (5%)
Language : Russian
Default : Yes
Forced : Yes
Audio #2
ID : 3
Format : AC-3
Format/Info : Audio Coding 3
Mode extension : CM (complete main)
Format settings, Endianness : Big
Codec ID : A_AC3
Bit rate mode : Constant
Bit rate : 192 Kbps
Channel(s) : 2 channels
Channel positions : Front: L R
Sampling rate : 48.0 KHz
Compression mode : Lossy
Stream size : 1.40 MiB (5%)
Language : English
Default : No
Forced : No

Скриншоты

[Профиль] [ЛС]
Кто просматривает тему:

Форум Тема Автор Размер
Фильмы 2016 года Мифика. Богоубийца / Mythica: The Godslayer (2016) WEBRip | Line достали все 1.45 GB
Фильмы (HD DVD, Blu-ray и BDRemux) Мифика: Задание для героев / Mythica: A Quest for Heroes (2015) BDRemux 1080p | P Russian Mafia 14.55 GB
Фильмы (HD Rips | 720p, 1080p) Мифика: Задание для героев / Mythica: A Quest for Heroes (2015) BDRip 720p | P достали все 3.11 GB
Фильмы 2015 года Мифика: Задание для героев / Mythica: A Quest for Heroes (ПМ) (Энн К. Блэк) [2015 г., Фэнтези, HDRip] достали все 1.45 GB
Фильмы 2015 года Мифика: Задание для героев / Mythica: A Quest for Heroes (Энн К. Блэк / Anne K. Black) [2015, США, Фэнтези, HDRip] VO TorrentFilm 1.29 GB
R.G.TorrentFilm Video Мифика: Задание для героев / Mythica: A Quest for Heroes (Энн К. Блэк / Anne K. Black) [2015, США, фэнтези, боевик, приключения, HDRip] MVO AleksSin 746 MB
Фильмы 2015 года Мифика: Задание для героев / Mythica: A Quest for Heroes (Энн К. Блэк / Anne K. Black) [2015, США, фэнтези, приключения, BDRip] VO (datynet) + Original TorrentFilm 1.46 GB
R.G.TorrentFilm Video Мифика: Задание для героев / Mythica: A Quest for Heroes (Энн К. Блэк / Anne K. Black) [2015, США, энтези, приключения, HDRip] MVO AleksSin 1.45 GB
Показать сообщения:    

Текущее время: Сегодня 09:58

Часовой пояс: GMT



Вы не можете начинать темы
Вы не можете отвечать на сообщения
Вы не можете редактировать свои сообщения
Вы не можете удалять свои сообщения
Вы не можете голосовать в опросах
Вы не можете прикреплять файлы к сообщениям
Вы не можете скачивать файлы