Мифика: Задание для героев / Mythica: A Quest for Heroes (2015) BDRip 720p | P

 
Автор Сообщение

достали все ®

Пол:

Стаж: 1 год 8 месяцев

Сообщений: 6598



Награды: 12 (Подробнее)

Mega Seeder 5 (Количество: 1) Mega Seeder 4 (Количество: 1) Mega Seeder 3 (Количество: 1)
Торрент-статистика

Создавать темы 28-Апр-2015 16:58

[Цитировать]

Информация о фильме
Название: Мифика: Задание для героев
Оригинальное название: Mythica: A Quest for Heroes
Год выпуска: 2015
Жанр: фэнтези
Режиссер: Энн К. Блэк
В ролях: Мелани Стоун, Адам Джонсон, Джейк Стормоен, Никки Поснер, Кристофер Робин Миллер, Кевин Сорбо, Натали Дивайн, Роберт Джейн, Майкл Флинн, Себастьян Майкл Барр
О фильме: Молодая волшебница Марек мечтает о захватывающих приключениях. Отправляясь в путь она встречает жрицу Тилу, которая ищет свою пропавшую сестру. Вместе они отправляются на её поиски.

Выпущено: США / Arrowstorm Entertainment
Продолжительность: 01:32:35
Озвучивание: Профессиональное (многоголосное) Официальное
Файл
Формат: MKV
Качество: BDRip 720p
Видео: 4000 kb/s, 1280x720
Аудио: Russian: AC3, 384 kb/s (2 ch) / English: AC3, 448 kb/s (6 ch)

MI

Format : Matroska
Format version : Version 4 / Version 2
File size : 3.11 GiB
Duration : 1h 32mn
Overall bit rate : 4 811 Kbps
Encoded date : UTC 2015-04-28 14:31:14
Writing application : mkvmerge v6.1.0 ('Old Devil') built on Mar 4 2013 09:10:42
Writing library : libebml v1.3.0 + libmatroska v1.4.0
Video
ID : 1
Format : AVC
Format/Info : Advanced Video Codec
Format profile : High@L4.1
Format settings, CABAC : Yes
Format settings, ReFrames : 9 frames
Codec ID : V_MPEG4/ISO/AVC
Duration : 1h 32mn
Bit rate : 4 000 Kbps
Width : 1 280 pixels
Height : 720 pixels
Display aspect ratio : 16:9
Frame rate : 23.976 fps
Color space : YUV
Chroma subsampling : 4:2:0
Bit depth : 8 bits
Scan type : Progressive
Bits/(Pixel*Frame) : 0.181
Stream size : 2.51 GiB (81%)
Writing library : x264 core 130 r2273 b3065e6
Encoding settings : cabac=1 / ref=9 / deblock=1:-3:-3 / analyse=0x3:0x133 / me=umh / subme=9 / psy=1 / psy_rd=1.00:0.10 / mixed_ref=1 / me_range=32 / chroma_me=1 / trellis=2 / 8x8dct=1 / cqm=0 / deadzone=21,11 / fast_pskip=0 / chroma_qp_offset=-3 / threads=12 / lookahead_threads=2 / sliced_threads=0 / nr=0 / decimate=1 / interlaced=0 / bluray_compat=0 / constrained_intra=0 / bframes=8 / b_pyramid=2 / b_adapt=2 / b_bias=0 / direct=3 / weightb=1 / open_gop=0 / weightp=2 / keyint=250 / keyint_min=23 / scenecut=40 / intra_refresh=0 / rc=2pass / mbtree=0 / bitrate=4000 / ratetol=1.0 / qcomp=0.60 / qpmin=0 / qpmax=69 / qpstep=4 / cplxblur=20.0 / qblur=0.5 / ip_ratio=1.40 / pb_ratio=1.30 / aq=1:1.00
Language : English
Default : Yes
Forced : No
Audio #1
ID : 2
Format : AC-3
Format/Info : Audio Coding 3
Mode extension : CM (complete main)
Format settings, Endianness : Big
Codec ID : A_AC3
Duration : 1h 32mn
Bit rate mode : Constant
Bit rate : 384 Kbps
Channel(s) : 2 channels
Channel positions : Front: L R
Sampling rate : 48.0 KHz
Bit depth : 16 bits
Compression mode : Lossy
Stream size : 254 MiB (8%)
Language : Russian
Default : Yes
Forced : No
Audio #2
ID : 3
Format : AC-3
Format/Info : Audio Coding 3
Mode extension : CM (complete main)
Format settings, Endianness : Big
Codec ID : A_AC3
Duration : 1h 32mn
Bit rate mode : Constant
Bit rate : 448 Kbps
Channel(s) : 6 channels
Channel positions : Front: L C R, Side: L R, LFE
Sampling rate : 48.0 KHz
Bit depth : 16 bits
Compression mode : Lossy
Stream size : 297 MiB (9%)
Language : English
Default : No
Forced : No

Скриншоты

[Профиль] [ЛС]
Кто просматривает тему:

Форум Тема Автор Размер
Фильмы 2016 года Мифика. Богоубийца / Mythica: The Godslayer (2016) WEBRip | Line достали все 1.45 GB
Фильмы (HD DVD, Blu-ray и BDRemux) Мифика: Задание для героев / Mythica: A Quest for Heroes (2015) BDRemux 1080p | P Russian Mafia 14.55 GB
Фильмы 2015 года Мифика: Задание для героев / Mythica: A Quest for Heroes (ПМ) (Энн К. Блэк) [2015 г., Фэнтези, HDRip] достали все 1.45 GB
Фильмы 2015 года Мифика: Задание для героев / Mythica: A Quest for Heroes (Энн К. Блэк / Anne K. Black) [2015, США, Фэнтези, HDRip] VO TorrentFilm 1.29 GB
R.G.TorrentFilm Video Мифика: Задание для героев / Mythica: A Quest for Heroes (Энн К. Блэк / Anne K. Black) [2015, США, фэнтези, боевик, приключения, HDRip] MVO AleksSin 746 MB
Фильмы 2015 года Мифика: Задание для героев / Mythica: A Quest for Heroes (Энн К. Блэк / Anne K. Black) [2015, США, фэнтези, приключения, BDRip] VO (datynet) + Original TorrentFilm 1.46 GB
R.G.TorrentFilm Video Мифика: Задание для героев / Mythica: A Quest for Heroes (Энн К. Блэк / Anne K. Black) [2015, США, энтези, приключения, HDRip] MVO AleksSin 1.45 GB
Фильмы (HD DVD, Blu-ray и BDRemux) Мифика: Некромант / Mythica: The Necromancer (2015) BDRemux 1080p от ExKinoRay | P Russian Mafia 20.84 GB
Показать сообщения:    

Текущее время: Сегодня 11:53

Часовой пояс: GMT



Вы не можете начинать темы
Вы не можете отвечать на сообщения
Вы не можете редактировать свои сообщения
Вы не можете удалять свои сообщения
Вы не можете голосовать в опросах
Вы не можете прикреплять файлы к сообщениям
Вы не можете скачивать файлы