Мистер Шесть / Большой брат / Mr. Six / Lao pao er (2015) BDRemux 1080p | L1

 
Автор Сообщение

достали все ®

Пол:

Стаж: 1 год 8 месяцев

Сообщений: 6515



Награды: 12 (Подробнее)

Mega Seeder 3 (Количество: 1) Top Releaser 4 (Количество: 1) Mega Seeder 1 (Количество: 1)
Торрент-статистика

Создавать темы 26-Июл-2016 10:19

[Цитировать]

Информация о фильме
Название: Мистер Шесть / Большой брат
Оригинальное название: Mr. Six / Lao pao er
Год выхода: 2015
Жанр: Боевик, драма
Режиссер: Ху Гуань
В ролях: Джу-Ганг Бай, Сяоган Фэн, Шан Цзянь, И Фэн Ли, Лян Цзин, Хуа Лю, Нин Хао, Цзэжу Тао, Чжан Ханьюй
О фильме:
Лю Е — 50-летний вор в законе, который когда-то царствовал на улицах Пекина. В преступных кругах его называли Лао Пао Эр, что означает «старая пушка». Однажды его непослушный сын ввязывается в потасовку с уличной бандой гонщиков. Лю Е вступается за сына, пытаясь усмирить молодёжь своим авторитетом.

Страна: Китай
Студия: Huayi Brothers & Taihe Film Investment
Продолжительность: 02:16:40
Перевод: Любительский одноголосый (закадровый) | Ворон
Файл
Кодек: MPEG-4
Качество: BDRemux 1080p
Видео: 1920x1080, 26.6 Mbit/s, 24.000 fps
Звук:
Аудио #01: 48 kHz, AC3, 2.0, 224 Kbps | Любительский одноголосый (закадровый) | Ворон |
Аудио #02: 48 kHz, PCM, 2.0, 1536 kbps | Оригинал |
Субтитры: Русский (полные), русские (форсированные)

MI

General
Unique ID : 250912359116930175022543429540944879101 (0xBCC3F66BE7EB8F6F841E039920711DFD)
Complete name : G:VideoMr.Six.2015.VO.BDREMUX.1080p.ExKinoRay.mkv
Format : Matroska
Format version : Version 4 / Version 2
File size : 27.1 GiB
Duration : 2h 16mn
Overall bit rate mode : Variable
Overall bit rate : 28.3 Mbps
Movie name : Mr.Six.2015.VO.BDREMUX.1080p.ExKinoRay
Encoded date : UTC 2016-07-25 17:38:02
Writing application : mkvmerge v8.3.0 ('Over the Horizon') 64bit
Writing library : libebml v1.3.1 + libmatroska v1.4.2
Video
ID : 1
Format : AVC
Format/Info : Advanced Video Codec
Format profile : High@L4.1
Format settings, CABAC : Yes
Format settings, ReFrames : 4 frames
Codec ID : V_MPEG4/ISO/AVC
Duration : 2h 16mn
Bit rate mode : Variable
Bit rate : 26.6 Mbps
Maximum bit rate : 30.0 Mbps
Width : 1 920 pixels
Height : 1 080 pixels
Display aspect ratio : 16:9
Frame rate mode : Constant
Frame rate : 24.000 fps
Standard : NTSC
Color space : YUV
Chroma subsampling : 4:2:0
Bit depth : 8 bits
Scan type : Progressive
Bits/(Pixel*Frame) : 0.534
Stream size : 25.4 GiB (94%)
Language : Chinese
Default : Yes
Forced : No
Color range : Limited
Color primaries : BT.709
Transfer characteristics : BT.709
Matrix coefficients : BT.709
Audio #1
ID : 2
Format : AC-3
Format/Info : Audio Coding 3
Mode extension : CM (complete main)
Format settings, Endianness : Big
Codec ID : A_AC3
Duration : 2h 16mn
Bit rate mode : Constant
Bit rate : 224 Kbps
Channel(s) : 2 channels
Channel positions : Front: L R
Sampling rate : 48.0 KHz
Frame rate : 31.250 fps (1536 spf)
Compression mode : Lossy
Delay relative to video : 24ms
Stream size : 219 MiB (1%)
Title : VO [Ворон]
Language : Russian
Default : Yes
Forced : No
Audio #2
ID : 3
Format : PCM
Codec ID : A_PCM/INT/LIT
Duration : 2h 16mn
Bit rate mode : Constant
Bit rate : 1 536 Kbps
Channel(s) : 2 channels
Sampling rate : 48.0 KHz
Frame rate : 32.000 fps (1500 spf)
Bit depth : 16 bits
Stream size : 1.47 GiB (5%)
Language : Chinese
Default : No
Forced : No
Text #1
ID : 4
Format : ASS
Codec ID : S_TEXT/ASS
Codec ID/Info : Advanced Sub Station Alpha
Duration : 50mn 20s
Bit rate : 1 bps
Count of elements : 5
Compression mode : Lossless
Stream size : 460 Bytes (0%)
Title : forced
Language : Russian
Default : Yes
Forced : No
Text #2
ID : 5
Format : ASS
Codec ID : S_TEXT/ASS
Codec ID/Info : Advanced Sub Station Alpha
Duration : 2h 13mn
Bit rate : 170 bps
Count of elements : 1908
Compression mode : Lossless
Stream size : 166 KiB (0%)
Title : ФСГ 'WATT'
Language : Russian
Default : No
Forced : No
Menu
00:00:00.000 : en:00:00:00.000
00:12:39.333 : en:00:12:39.333
00:25:01.708 : en:00:25:01.708
00:36:53.625 : en:00:36:53.625
00:48:16.875 : en:00:48:16.875
01:00:02.917 : en:01:00:02.917
01:12:11.542 : en:01:12:11.542
01:25:55.708 : en:01:25:55.708
01:37:08.708 : en:01:37:08.708
01:48:18.583 : en:01:48:18.583
02:00:24.542 : en:02:00:24.542
02:12:41.125 : en:02:12:41.125

Примечание

Внимание! Фильм содержит ненормативную лексику.

Скриншоты

Релиз от: Автор релиза:
[Профиль] [ЛС]
Кто просматривает тему:

Форум Тема Автор Размер
Отечественные мультфильмы Mister Пронька (мистер Пронька) (Леонид Носырев) [1991, Рисованный мультфильм, WEB-DLRip] TorrentFilm 221 MB
Фильмы (HD DVD, Blu-ray и BDRemux) Бог знает, мистер Аллисон / Heaven Knows, Mr. Allison (1957) BDRemux [1080p] Guest 28.39 GB
Зарубежные сериалы Джонатан Стрендж и мистер Норрелл / Jonathan Strange And Mr Norrell [S01] (2015) HDRip | LostFilm достали все 6.07 GB
Боевики, детективы, триллеры Кинг Стивен – Мистер Мерседес [Князев Игорь, 2014 г., 128 kbps, MP3] sergej644 999 MB
Мировая классика Марк Леви - Странное путешествие мистера Долдри (2015) MP3 Swager 370 MB
Фильмы 2011 года Мистер Бин на отдыхе / Mr. Bean\'s Holiday (Стив Бенделак / Steve Bendelack) [2007, Великобритания, Франция, Германия, Комедия, семейный, BDRip] DVO (Universal Channel) + DVO (ТРК Украина) reversefile 1.46 GB
Фильмы 2011 года Мистер Бонс / Mr.Bones (Грей Хоффмейр / Gray Hofmeyr) [2001 г., Комедия, DVDRip] Richi Keeper 1.47 GB
Зарубежные Мистер Гоу / Mi-seu-teo Go / Mr. Go (2013) BDRip 1080p от Ash61 | 3D-Video | halfOU | L1 sergej644 17.45 GB
Показать сообщения:    

Текущее время: Сегодня 04:59

Часовой пояс: GMT



Вы не можете начинать темы
Вы не можете отвечать на сообщения
Вы не можете редактировать свои сообщения
Вы не можете удалять свои сообщения
Вы не можете голосовать в опросах
Вы не можете прикреплять файлы к сообщениям
Вы не можете скачивать файлы