Мистер Шесть / Большой брат / Mr. Six / Lao pao er (2015) BDRip 720p | L1

 
Автор Сообщение

достали все ®

Пол:

Стаж: 1 год 8 месяцев

Сообщений: 6565



Награды: 12 (Подробнее)

Mega Seeder 2 (Количество: 1) Mega Seeder 4 (Количество: 1) За внесенный вклад в развитие сайта (Количество: 1)
Торрент-статистика

Создавать темы 26-Июл-2016 10:16

[Цитировать]

Информация о фильме
Название: Мистер Шесть / Большой брат
Оригинальное название: Mr. Six / Lao pao er
Год выхода: 2015
Жанр: Боевик, драма
Режиссер: Ху Гуань
В ролях: Джу-Ганг Бай, Сяоган Фэн, Шан Цзянь, И Фэн Ли, Лян Цзин, Хуа Лю, Нин Хао, Цзэжу Тао, Чжан Ханьюй
О фильме:
Лю Е — 50-летний вор в законе, который когда-то царствовал на улицах Пекина. В преступных кругах его называли Лао Пао Эр, что означает «старая пушка». Однажды его непослушный сын ввязывается в потасовку с уличной бандой гонщиков. Лю Е вступается за сына, пытаясь усмирить молодёжь своим авторитетом.

Страна: Китай
Студия: Huayi Brothers & Taihe Film Investment
Продолжительность: 02:16:40
Перевод: Любительский одноголосый (закадровый) | Ворон
Файл
Кодек: MPEG-4
Качество: BDRip 720p
Видео: 1280x480, 5405 Kbit/s, 24.000 fps
Звук:
Аудио #01: 48 kHz, AC3, 2.0, 224 Kbps | Любительский одноголосый (закадровый) | Ворон |
Аудио #02: 48 kHz, AC3, 2.0, 640 kbps | Оригинал |
Субтитры: Русский (полные), русские (форсированные)

MI

General
Unique ID : 182496637537554439670226005996736629525 (0x894B92EB00AE2540BB560A64DEB04B15)
Complete name : G:VideoMr.Six.2015.VO.BDRip.720p.ExKinoRay.mkv
Format : Matroska
Format version : Version 4 / Version 2
File size : 5.99 GiB
Duration : 2h 16mn
Overall bit rate : 6 271 Kbps
Movie name : Mr.Six.2015.VO.BDRip.720p.ExKinoRay
Encoded date : UTC 2016-07-25 20:43:13
Writing application : mkvmerge v8.3.0 ('Over the Horizon') 64bit
Writing library : libebml v1.3.1 + libmatroska v1.4.2
Video
ID : 1
Format : AVC
Format/Info : Advanced Video Codec
Format profile : High@L4.1
Format settings, CABAC : Yes
Format settings, ReFrames : 12 frames
Codec ID : V_MPEG4/ISO/AVC
Duration : 2h 16mn
Bit rate : 5 405 Kbps
Width : 1 280 pixels
Height : 480 pixels
Display aspect ratio : 2.667
Frame rate mode : Constant
Frame rate : 24.000 fps
Color space : YUV
Chroma subsampling : 4:2:0
Bit depth : 8 bits
Scan type : Progressive
Bits/(Pixel*Frame) : 0.367
Stream size : 5.16 GiB (86%)
Writing library : x264 core 142 r2431+42 c69a006 tMod [8-bit@all X86_64]
Encoding settings : cabac=1 / ref=12 / deblock=1:-3:-3 / analyse=0x3:0x133 / me=umh / subme=11 / psy=1 / fade_compensate=0.00 / psy_rd=1.05:1.00 / mixed_ref=1 / me_range=32 / chroma_me=1 / trellis=2 / 8x8dct=1 / cqm=0 / deadzone=21,11 / fast_pskip=0 / chroma_qp_offset=-4 / threads=12 / lookahead_threads=2 / sliced_threads=0 / nr=0 / decimate=0 / interlaced=0 / bluray_compat=0 / constrained_intra=0 / fgo=0 / bframes=8 / b_pyramid=2 / b_adapt=2 / b_bias=0 / direct=3 / weightb=1 / open_gop=0 / weightp=2 / keyint=240 / keyint_min=24 / scenecut=40 / intra_refresh=0 / rc_lookahead=60 / rc=crf / mbtree=0 / crf=15.7000 / qcomp=0.60 / qpmin=0:0:0 / qpmax=69:69:69 / qpstep=4 / vbv_maxrate=40000 / vbv_bufsize=30000 / crf_max=0.0 / nal_hrd=none / filler=0 / ip_ratio=1.40 / pb_ratio=1.30 / aq=1:1.00 / aq-sensitivity=10.00 / aq-factor=1.00:1.00:1.00 / aq2=0 / aq3=0
Language : Chinese
Default : Yes
Forced : No
Audio #1
ID : 2
Format : AC-3
Format/Info : Audio Coding 3
Mode extension : CM (complete main)
Format settings, Endianness : Big
Codec ID : A_AC3
Duration : 2h 16mn
Bit rate mode : Constant
Bit rate : 224 Kbps
Channel(s) : 2 channels
Channel positions : Front: L R
Sampling rate : 48.0 KHz
Frame rate : 31.250 fps (1536 spf)
Compression mode : Lossy
Delay relative to video : 24ms
Stream size : 219 MiB (4%)
Title : VO [Ворон]
Language : Russian
Default : Yes
Forced : No
Audio #2
ID : 3
Format : AC-3
Format/Info : Audio Coding 3
Mode extension : CM (complete main)
Format settings, Endianness : Big
Codec ID : A_AC3
Duration : 2h 16mn
Bit rate mode : Constant
Bit rate : 640 Kbps
Channel(s) : 2 channels
Channel positions : Front: L R
Sampling rate : 48.0 KHz
Frame rate : 31.250 fps (1536 spf)
Compression mode : Lossy
Stream size : 626 MiB (10%)
Title : Original
Language : Chinese
Default : No
Forced : No
Text #1
ID : 4
Format : ASS
Codec ID : S_TEXT/ASS
Codec ID/Info : Advanced Sub Station Alpha
Duration : 50mn 20s
Bit rate : 1 bps
Count of elements : 5
Compression mode : Lossless
Stream size : 460 Bytes (0%)
Title : forced
Language : Russian
Default : Yes
Forced : No
Text #2
ID : 5
Format : ASS
Codec ID : S_TEXT/ASS
Codec ID/Info : Advanced Sub Station Alpha
Duration : 2h 13mn
Bit rate : 170 bps
Count of elements : 1908
Compression mode : Lossless
Stream size : 166 KiB (0%)
Title : ФСГ 'WATT'
Language : Russian
Default : No
Forced : No
Menu
00:00:00.000 : en:00:00:00.000
00:12:39.333 : en:00:12:39.333
00:25:01.708 : en:00:25:01.708
00:36:53.625 : en:00:36:53.625
00:48:16.875 : en:00:48:16.875
01:00:02.917 : en:01:00:02.917
01:12:11.542 : en:01:12:11.542
01:25:55.708 : en:01:25:55.708
01:37:08.708 : en:01:37:08.708
01:48:18.583 : en:01:48:18.583
02:00:24.542 : en:02:00:24.542
02:12:41.125 : en:02:12:41.125

Примечание

Внимание! Фильм содержит ненормативную лексику.

Скриншоты

Релиз от: Автор релиза:
[Профиль] [ЛС]
Кто просматривает тему:

Форум Тема Автор Размер
Отечественные мультфильмы Mister Пронька (мистер Пронька) (Леонид Носырев) [1991, Рисованный мультфильм, WEB-DLRip] TorrentFilm 221 MB
Фильмы (HD DVD, Blu-ray и BDRemux) Бог знает, мистер Аллисон / Heaven Knows, Mr. Allison (1957) BDRemux [1080p] Guest 28.39 GB
Зарубежные сериалы Джонатан Стрендж и мистер Норрелл / Jonathan Strange And Mr Norrell [S01] (2015) HDRip | LostFilm достали все 6.07 GB
Боевики, детективы, триллеры Кинг Стивен – Мистер Мерседес [Князев Игорь, 2014 г., 128 kbps, MP3] sergej644 999 MB
Мировая классика Марк Леви - Странное путешествие мистера Долдри (2015) MP3 Swager 370 MB
Фильмы 2011 года Мистер Бин на отдыхе / Mr. Bean\'s Holiday (Стив Бенделак / Steve Bendelack) [2007, Великобритания, Франция, Германия, Комедия, семейный, BDRip] DVO (Universal Channel) + DVO (ТРК Украина) reversefile 1.46 GB
Фильмы 2011 года Мистер Бонс / Mr.Bones (Грей Хоффмейр / Gray Hofmeyr) [2001 г., Комедия, DVDRip] Richi Keeper 1.47 GB
Зарубежные Мистер Гоу / Mi-seu-teo Go / Mr. Go (2013) BDRip 1080p от Ash61 | 3D-Video | halfOU | L1 sergej644 17.45 GB
Показать сообщения:    

Текущее время: Сегодня 10:25

Часовой пояс: GMT



Вы не можете начинать темы
Вы не можете отвечать на сообщения
Вы не можете редактировать свои сообщения
Вы не можете удалять свои сообщения
Вы не можете голосовать в опросах
Вы не можете прикреплять файлы к сообщениям
Вы не можете скачивать файлы