Мистер Холмс / Mr. Holmes (2015) ВDRip 1080р | L1

 
Автор Сообщение

Russian Mafia ®

Пол:

Стаж: 1 год 8 месяцев

Сообщений: 4247



Награды: 10 (Подробнее)

Top Releaser 4 (Количество: 1) Top Releaser 2 (Количество: 1) Top Releaser 5 (Количество: 1)
Торрент-статистика

Создавать темы 24-Окт-2015 06:35

[Цитировать]

Информация о фильме
Название: Мистер Холмс
Оригинальное название: Mr. Holmes
Год выхода: 2015
Жанр: Драма, криминал, детектив
Режиссер: Билл Кондон / Bill Condon
В ролях: Иэн МакКеллен, Лора Линни, Майло Паркер, Хироюки Санада, Хэтти Морахэн, Патрик Кеннеди, Роджер Аллам, Филип Дэвис, Фрэнсис де ла Тур, Чарльз Мэддокс...
О фильме:
Действие развернется в 1947 году, а речь в фильме пойдет об отошедшем от дел Шерлоке Холмсе, живущем в сонной деревушке в Сассексе вместе с горничной миссис Манро и сыном, который занимается сыском в качестве хобби. Несмотря на уединенный образ жизни, знаменитому сыщику с Бейкер-стрит по-прежнему не дает покоя тайна так и нераскрытого 30 лет назад дела.

Страна: Великобритания, США
Студия: AI-Film, Archer Gray Productions, BBC Films, FilmNation Entertainment, See-Saw Films
Продолжительность: 01:43:45
Перевод: Любительский одноголосый закадровый (Reptil)
Файл
Качество: BDRip (1080p)
Видео: MPEG-4 AVC, 7473 Кбит/с, 1920x800
Аудио: Русский (AC3, 6 ch, 640 Кбит/с), английский (DTS, 6 ch, 1509 Кбит/с)
Субтитры: Русские, английские

МедиаИнфо

Формат : Matroska
Версия формата : Version 2
Размер файла : 6,98 Гбайт
Продолжительность : 1 ч. 43 м.
Общий поток : 9628 Кбит/сек
Название фильма : ~V ad~
Дата кодирования : UTC 2015-10-24 03:18:25
Программа кодирования : mkvmerge v6.5.0 ('Isn't she lovely') built on Oct 20 2013 12:50:05
Библиотека кодирования : libebml v1.3.0 + libmatroska v1.4.1
Видео
Идентификатор : 1
Формат : AVC
Формат/Информация : Advanced Video Codec
Профиль формата : High@L4.1
Параметр CABAC формата : Да
Параметр ReFrames формата : 5 кадров
Идентификатор кодека : V_MPEG4/ISO/AVC
Продолжительность : 1 ч. 43 м.
Битрейт : 7473 Кбит/сек
Ширина : 1920 пикселей
Высота : 800 пикселей
Соотношение сторон : 2,40:1
Режим частоты кадров : Постоянный
Частота кадров : 23,976 кадра/сек
Цветовое пространство : YUV
Субдискретизация насыщенности : 4:2:0
Битовая глубина : 8 бит
Тип развёртки : Прогрессивная
Бит/(Пиксели*Кадры) : 0.203
Размер потока : 5,28 Гбайт (76%)
Заголовок : ~V~
Библиотека кодирования : x264 core 148 r2579 73ae2d1
Настройки программы : cabac=1 / ref=5 / deblock=1:-3:-3 / analyse=0x3:0x133 / me=umh / subme=11 / psy=1 / psy_rd=1.00:0.00 / mixed_ref=1 / me_range=32 / chroma_me=1 / trellis=2 / 8x8dct=1 / cqm=0 / deadzone=21,11 / fast_pskip=0 / chroma_qp_offset=-1 / threads=6 / lookahead_threads=1 / sliced_threads=0 / nr=0 / decimate=0 / interlaced=0 / bluray_compat=0 / constrained_intra=0 / bframes=9 / b_pyramid=2 / b_adapt=2 / b_bias=0 / direct=3 / weightb=1 / open_gop=0 / weightp=2 / keyint=240 / keyint_min=23 / scenecut=40 / intra_refresh=0 / rc=2pass / mbtree=0 / bitrate=7473 / ratetol=1.0 / qcomp=0.60 / qpmin=0 / qpmax=69 / qpstep=4 / cplxblur=20.0 / qblur=0.5 / ip_ratio=1.40 / pb_ratio=1.30 / aq=1:0.80
Язык : English
Default : Да
Forced : Нет
Аудио #1
Идентификатор : 2
Формат : AC-3
Формат/Информация : Audio Coding 3
Расширение режима : CM (complete main)
Параметр Endianness формата : Big
Идентификатор кодека : A_AC3
Продолжительность : 1 ч. 43 м.
Вид битрейта : Постоянный
Битрейт : 640 Кбит/сек
Каналы : 6 каналов
Расположение каналов : Front: L C R, Side: L R, LFE
Частота : 48,0 КГц
Метод сжатия : С потерями
Размер потока : 475 Мбайт (7%)
Заголовок : VO [Reptil]
Язык : Russian
Default : Да
Forced : Да
Аудио #2
Идентификатор : 3
Формат : DTS
Формат/Информация : Digital Theater Systems
Режим : 16
Параметр Endianness формата : Big
Идентификатор кодека : A_DTS
Продолжительность : 1 ч. 43 м.
Вид битрейта : Постоянный
Битрейт : 1510 Кбит/сек
Каналы : 6 каналов
Расположение каналов : Front: L C R, Side: L R, LFE
Частота : 48,0 КГц
Битовая глубина : 24 бит
Метод сжатия : С потерями
Размер потока : 1,09 Гбайт (16%)
Язык : English
Default : Нет
Forced : Нет
Текст #1
Идентификатор : 4
Формат : UTF-8
Идентификатор кодека : S_TEXT/UTF8
Идентификатор кодека/Информация : UTF-8 Plain Text
Язык : Russian
Default : Нет
Forced : Нет
Текст #2
Идентификатор : 5
Формат : VobSub
Режим смешивания : zlib
Идентификатор кодека : S_VOBSUB
Идентификатор кодека/Информация : Picture based subtitle format used on DVDs
Язык : English
Default : Нет
Forced : Нет
Меню
00:00:00.000 : en:Chapter 01
00:07:28.906 : en:Chapter 02
00:13:13.501 : en:Chapter 03
00:17:30.924 : en:Chapter 04
00:26:18.910 : en:Chapter 05
00:33:56.576 : en:Chapter 06
00:39:33.913 : en:Chapter 07
00:45:14.753 : en:Chapter 08
00:53:35.128 : en:Chapter 09
00:59:44.789 : en:Chapter 10
01:05:43.981 : en:Chapter 11
01:14:05.232 : en:Chapter 12
01:24:24.350 : en:Chapter 13
01:29:30.406 : en:Chapter 14
01:34:31.248 : en:Chapter 15
01:39:47.815 : en:Chapter 16

х264

x264 [info]: frame I:1474 Avg QP:12.89 size:206848
x264 [info]: frame P:28661 Avg QP:15.53 size: 84706
x264 [info]: frame B:119109 Avg QP:17.25 size: 25857

Скриншоты


Сэмпл
[Профиль] [ЛС]
Кто просматривает тему:

Форум Тема Автор Размер
Отечественные мультфильмы Mister Пронька (мистер Пронька) (Леонид Носырев) [1991, Рисованный мультфильм, WEB-DLRip] TorrentFilm 221 MB
Фильмы (HD DVD, Blu-ray и BDRemux) Бог знает, мистер Аллисон / Heaven Knows, Mr. Allison (1957) BDRemux [1080p] Guest 28.39 GB
Зарубежные сериалы Джонатан Стрендж и мистер Норрелл / Jonathan Strange And Mr Norrell [S01] (2015) HDRip | LostFilm достали все 6.07 GB
Боевики, детективы, триллеры Кинг Стивен – Мистер Мерседес [Князев Игорь, 2014 г., 128 kbps, MP3] sergej644 999 MB
Мировая классика Марк Леви - Странное путешествие мистера Долдри (2015) MP3 Swager 370 MB
Фильмы 2011 года Мистер Бин на отдыхе / Mr. Bean\'s Holiday (Стив Бенделак / Steve Bendelack) [2007, Великобритания, Франция, Германия, Комедия, семейный, BDRip] DVO (Universal Channel) + DVO (ТРК Украина) reversefile 1.46 GB
Фильмы 2011 года Мистер Бонс / Mr.Bones (Грей Хоффмейр / Gray Hofmeyr) [2001 г., Комедия, DVDRip] Richi Keeper 1.47 GB
Зарубежные Мистер Гоу / Mi-seu-teo Go / Mr. Go (2013) BDRip 1080p от Ash61 | 3D-Video | halfOU | L1 sergej644 17.45 GB
Показать сообщения:    

Текущее время: Сегодня 04:13

Часовой пояс: GMT



Вы не можете начинать темы
Вы не можете отвечать на сообщения
Вы не можете редактировать свои сообщения
Вы не можете удалять свои сообщения
Вы не можете голосовать в опросах
Вы не можете прикреплять файлы к сообщениям
Вы не можете скачивать файлы