Мистер Холмс / Mr. Holmes (2015) ВDRip 1080р | L1

 
Автор Сообщение

Russian Mafia ®

Пол:

Стаж: 1 год 8 месяцев

Сообщений: 4247



Награды: 10 (Подробнее)

Top Releaser 4 (Количество: 1) Top Releaser 2 (Количество: 1) Mega Seeder 1 (Количество: 1)
Торрент-статистика

Создавать темы 23-Окт-2015 09:57

[Цитировать]

Название: Мистер Холмс
Оригинальное название: Mr. Holmes
Страна: Великобритания, США
Жанр: драма, детектив
Год выпуска: 2015
Продолжительность: 01:44:00
Режиссер: Билл Кондон / Bill Condon
В ролях: Иэн МакКеллен, Лора Линни, Майло Паркер, Хироюки Санада, Хэтти Морахэн, Патрик Кеннеди, Роджер Аллам, Филип Дэвис, Фрэнсис де ла Тур
Описание: 1947 год. Постаревший Шерлок Холмс живет в маленькой деревушке с домработницей и ее сыном. Мирную старость и увлечение пчелами омрачает лишь тайна последнего, нераскрытого дела.

Качество видео: ВDRip 1080р
Видео: MPEG-4 AVC, 11800 Кбит/с, 1920x800
Аудио: Русский (AC3, 2 ch, 192 Кбит/с), английский (DTS, 6 ch, 1509 Кбит/с)
Озвучивание: Любительское (одноголосное) [Andi]
Субтитры: Русские, английские
Семпл

Скриншоты

MediaInfo

Общее
Уникальный идентификатор : 183123418603719564387425540356396593336 (0x89C4499C453540CE85C065CFC048B0B8)
Полное имя : D:Mr.Holmes.2015.BDRip.1080p.NNM-Club.mkv
Формат : Matroska
Версия формата : Version 4 / Version 2
Размер файла : 10,0 Гбайт
Продолжительность : 1 ч. 43 м.
Общий поток : 13,8 Мбит/сек
Название фильма : Mr. Holmes 2015 @ NNM-Club
Дата кодирования : UTC 2015-10-23 02:46:57
Программа кодирования : mkvmerge v6.9.1 ('Blue Panther') 64bit built on Apr 18 2014 18:23:38
Библиотека кодирования : libebml v1.3.0 + libmatroska v1.4.1
Видео
Идентификатор : 1
Формат : AVC
Формат/Информация : Advanced Video Codec
Профиль формата : High@L4.1
Параметр CABAC формата : Да
Параметр ReFrames формата : 5 кадров
Идентификатор кодека : V_MPEG4/ISO/AVC
Продолжительность : 1 ч. 43 м.
Битрейт : 11,8 Мбит/сек
Ширина : 1920 пикселей
Высота : 800 пикселей
Соотношение сторон : 2,40:1
Режим частоты кадров : Постоянный
Частота кадров : 23,976 кадра/сек
Цветовое пространство : YUV
Субдискретизация насыщенности : 4:2:0
Битовая глубина : 8 бит
Тип развёртки : Прогрессивная
Бит/(Пиксели*Кадры) : 0.322
Размер потока : 8,59 Гбайт (86%)
Библиотека кодирования : x264 core 142 r2431+42 c69a006 tMod [8-bit@all X86_64]
Настройки программы : cabac=1 / ref=5 / deblock=1:-3:-3 / analyse=0x3:0x133 / me=umh / subme=11 / psy=1 / fade_compensate=0.00 / psy_rd=0.90:0.00 / mixed_ref=1 / me_range=32 / chroma_me=1 / trellis=2 / 8x8dct=1 / cqm=0 / deadzone=21,11 / fast_pskip=0 / chroma_qp_offset=-2 / threads=12 / lookahead_threads=2 / sliced_threads=0 / nr=0 / decimate=0 / interlaced=0 / bluray_compat=0 / constrained_intra=0 / fgo=0 / bframes=8 / b_pyramid=2 / b_adapt=2 / b_bias=0 / direct=3 / weightb=1 / open_gop=0 / weightp=2 / keyint=240 / keyint_min=23 / scenecut=40 / intra_refresh=0 / rc_lookahead=60 / rc=crf / mbtree=0 / crf=14.8000 / qcomp=0.60 / qpmin=0:0:0 / qpmax=69:69:69 / qpstep=4 / vbv_maxrate=40000 / vbv_bufsize=30000 / crf_max=0.0 / nal_hrd=none / filler=0 / ip_ratio=1.40 / pb_ratio=1.30 / aq=1:0.90 / aq-sensitivity=10.00 / aq-factor=1.00:1.00:1.00 / aq2=0 / aq3=0
Язык : English
Default : Да
Forced : Нет
Аудио #1
Идентификатор : 2
Формат : AC-3
Формат/Информация : Audio Coding 3
Расширение режима : CM (complete main)
Параметр Endianness формата : Big
Идентификатор кодека : A_AC3
Продолжительность : 1 ч. 43 м.
Вид битрейта : Постоянный
Битрейт : 192 Кбит/сек
Каналы : 2 канала
Расположение каналов : Front: L R
Частота : 48,0 КГц
Метод сжатия : С потерями
Размер потока : 142 Мбайт (1%)
Язык : Russian
Default : Да
Forced : Нет
Аудио #2
Идентификатор : 3
Формат : DTS
Формат/Информация : Digital Theater Systems
Режим : 16
Параметр Endianness формата : Big
Идентификатор кодека : A_DTS
Продолжительность : 1 ч. 43 м.
Вид битрейта : Постоянный
Битрейт : 1509 Кбит/сек
Каналы : 6 каналов
Расположение каналов : Front: L C R, Side: L R, LFE
Частота : 48,0 КГц
Битовая глубина : 16 бит
Метод сжатия : С потерями
Размер потока : 1,09 Гбайт (11%)
Язык : English
Default : Нет
Forced : Нет
Текст #1
Идентификатор : 4
Формат : UTF-8
Идентификатор кодека : S_TEXT/UTF8
Идентификатор кодека/Информация : UTF-8 Plain Text
Язык : Russian
Default : Нет
Forced : Нет
Текст #2
Идентификатор : 5
Формат : VobSub
Режим смешивания : zlib
Идентификатор кодека : S_VOBSUB
Идентификатор кодека/Информация : Picture based subtitle format used on DVDs
Язык : English
Default : Нет
Forced : Нет
Меню
00:00:00.000 : en:Chapter 01
00:07:29.157 : en:Chapter 02
00:13:13.584 : en:Chapter 03
00:17:31.008 : en:Chapter 04
00:26:19.160 : en:Chapter 05
00:33:56.826 : en:Chapter 06
00:39:33.996 : en:Chapter 07
00:45:15.003 : en:Chapter 08
00:53:34.669 : en:Chapter 09
00:59:44.789 : en:Chapter 10
01:05:44.065 : en:Chapter 11
01:14:05.441 : en:Chapter 12
01:24:24.434 : en:Chapter 13
01:29:30.490 : en:Chapter 14
01:34:30.956 : en:Chapter 15
01:39:47.356 : en:Chapter 16
[Профиль] [ЛС]
Кто просматривает тему:

Форум Тема Автор Размер
Отечественные мультфильмы Mister Пронька (мистер Пронька) (Леонид Носырев) [1991, Рисованный мультфильм, WEB-DLRip] TorrentFilm 221 MB
Фильмы (HD DVD, Blu-ray и BDRemux) Бог знает, мистер Аллисон / Heaven Knows, Mr. Allison (1957) BDRemux [1080p] Guest 28.39 GB
Зарубежные сериалы Джонатан Стрендж и мистер Норрелл / Jonathan Strange And Mr Norrell [S01] (2015) HDRip | LostFilm достали все 6.07 GB
Боевики, детективы, триллеры Кинг Стивен – Мистер Мерседес [Князев Игорь, 2014 г., 128 kbps, MP3] sergej644 999 MB
Мировая классика Марк Леви - Странное путешествие мистера Долдри (2015) MP3 Swager 370 MB
Фильмы 2011 года Мистер Бин на отдыхе / Mr. Bean\'s Holiday (Стив Бенделак / Steve Bendelack) [2007, Великобритания, Франция, Германия, Комедия, семейный, BDRip] DVO (Universal Channel) + DVO (ТРК Украина) reversefile 1.46 GB
Фильмы 2011 года Мистер Бонс / Mr.Bones (Грей Хоффмейр / Gray Hofmeyr) [2001 г., Комедия, DVDRip] Richi Keeper 1.47 GB
Зарубежные Мистер Гоу / Mi-seu-teo Go / Mr. Go (2013) BDRip 1080p от Ash61 | 3D-Video | halfOU | L1 sergej644 17.45 GB
Показать сообщения:    

Текущее время: Сегодня 02:15

Часовой пояс: GMT



Вы не можете начинать темы
Вы не можете отвечать на сообщения
Вы не можете редактировать свои сообщения
Вы не можете удалять свои сообщения
Вы не можете голосовать в опросах
Вы не можете прикреплять файлы к сообщениям
Вы не можете скачивать файлы