Мистер Твистер (Анатолий Каранович) [1963, Рисованный,перекладки, DVDRip]

 
Автор Сообщение

painkiller ®

Стаж: 2 года 3 месяца

Сообщений: 582



Награды: Нет

Торрент-статистика

Создавать темы 27-Авг-2014 15:29

[Цитировать]

Мистер Твистер
Страна: CCCР
Жанр: Рисованный ,перекладки
Продолжительность: 00:15:33
Год выпуска: 1963
Русские субтитры: нет
Режиссёр: Анатолий Каранович
Описание: В основе мультфильма - популярное детское стихотворение Самуила Маршака, написанное в 1933 году.
Миллионер Мистер Твистер вместе с семейством отправляется в круиз из Нью-Йорка в Ленинград. По прибытии выясняется, что забронированный отель не относится к категории «только для белых». Твистер отменяет броню и отправляется на поиски другой гостиницы. Желая проучить расиста-капиталиста, портье обзванивает своих коллег и просит их говорить, что «мест нет»…
Доп. информация: «Союзмультфильм
Сценарист: Самуил Маршак
Художник-постановщик: Евгений Шукаев
Оператор: Михаил Каменецкий
Композитор: Михаил Зив
Звукооператор: Борис Фильчиков
Художник: Валентина Василенко
Монтажер: Лидия Кякшт
Аниматоры: Ю.Клепацкий, Ю.Норштейн, М.Портная, Г.Сокольский
Куклы и декорации: Р.Гуров, О.Масаинов, В.Петров, В.Алисов, Ф. Олейников, С.Этлис, П.Лесин
Качество: DVDRip
Формат: AVI
Видео: 704x528 (1.33:1), 25 fps, XviD build 65 ~2099 kbps avg, 0.23 bit/pixel
Аудио: 48 kHz, AC3 Dolby Digital, 1/0 (C) ch, ~192.00 kbps avg
Субтитры: нет

Интересные факты

Известно, что при каждом новом переиздании Самуил Маршак вносил коррективы и изменения в текст. Так, со временем в отеле "появляется" лифт, консьерж не строит козни против «скандального иностранца» (эта правка, по словам Маршака, была сделана по просьбе «Интуриста», боявшегося растерять западную клиентуру). А в мультипликационной версии исчезает главная мотивация приезда, озвученная дочкой миллионера Сюзи: "Я буду питаться зернистой икрой, живую ловить осетрину, кататься на тройке над Волгой-рекой и бегать в колхоз по малину!" - видимо, чтобы не раздражать советского зрителя.
Кстати, эта поэма спасла жизнь самому Маршаку, о чем рассказала его правнучка. Когда Сталину принесли в очередной раз расстрельный список, он вычеркнул фамилию Маршак, вспомнив "Мистер-Твистер" и заметив одобрительно: "Хороший советский поэт".

Подробные технические данные

Формат : AVIФормат/Информация : Audio Video InterleaveРазмер файла : 256 МбайтПродолжительность : 15 м.Общий поток : 2301 Кбит/секПрограмма кодирования : VirtualDubModRus 1.5.10.2 (build 2542/release)Правообладатель : Rutracker.orgПримечание : DVDRip by dvdss
ВидеоИдентификатор : 0Формат : MPEG-4 VisualПрофиль формата : Advanced Simple@L5Параметр BVOP формата : 2Параметр QPel формата : НетПараметр GMC формата : Без точки переходаПараметр матрицы формата : ВыборочнаяИдентификатор кодека : XVIDИдентификатор кодека/Подсказка : XviDПродолжительность : 15 м.Битрейт : 2099 Кбит/секШирина : 704 пикс.Высота : 528 пикс.Соотношение сторон : 4:3Частота кадров : 25,000 кадр/секЦветовое пространство : YUVПодвыборка цветности : 4:2:0Битовая глубина : 8 битТип развёртки : ПрогрессивнаяМетод сжатия : С потерямиБит/(Пиксели*Кадры) : 0.226Размер потока : 234 Мбайт (91%)Библиотека кодирования : XviD 65
АудиоИдентификатор : 1Формат : AC-3Формат/Информация : Audio Coding 3Расширение режима : CM (complete main)Идентификатор кодека : 2000Продолжительность : 15 м.Вид битрейта : ПостоянныйБитрейт : 192 Кбит/секКанал(ы) : 1 каналРасположение каналов : Front: CЧастота : 48,0 КГцБитовая глубина : 16 битМетод сжатия : С потерямиРазмер потока : 21,4 Мбайт (8%)Выравнивание : Разделение по промежуткамПродолжительность промежутка : 40 мс. (1,00 видеокадр)Время предзагрузки промежутка : 500 ms

Скриншоты

[Профиль] [ЛС]
Кто просматривает тему:

Форум Тема Автор Размер
Отечественные мультфильмы Mister Пронька (мистер Пронька) (Леонид Носырев) [1991, Рисованный мультфильм, WEB-DLRip] TorrentFilm 221 MB
Фильмы (HD DVD, Blu-ray и BDRemux) Бог знает, мистер Аллисон / Heaven Knows, Mr. Allison (1957) BDRemux [1080p] Guest 28.39 GB
Зарубежные сериалы Джонатан Стрендж и мистер Норрелл / Jonathan Strange And Mr Norrell [S01] (2015) HDRip | LostFilm достали все 6.07 GB
Боевики, детективы, триллеры Кинг Стивен – Мистер Мерседес [Князев Игорь, 2014 г., 128 kbps, MP3] sergej644 999 MB
Мировая классика Марк Леви - Странное путешествие мистера Долдри (2015) MP3 Swager 370 MB
Фильмы 2011 года Мистер Бин на отдыхе / Mr. Bean\'s Holiday (Стив Бенделак / Steve Bendelack) [2007, Великобритания, Франция, Германия, Комедия, семейный, BDRip] DVO (Universal Channel) + DVO (ТРК Украина) reversefile 1.46 GB
Фильмы 2011 года Мистер Бонс / Mr.Bones (Грей Хоффмейр / Gray Hofmeyr) [2001 г., Комедия, DVDRip] Richi Keeper 1.47 GB
Зарубежные Мистер Гоу / Mi-seu-teo Go / Mr. Go (2013) BDRip 1080p от Ash61 | 3D-Video | halfOU | L1 sergej644 17.45 GB
Показать сообщения:    

Текущее время: Сегодня 10:00

Часовой пояс: GMT



Вы не можете начинать темы
Вы не можете отвечать на сообщения
Вы не можете редактировать свои сообщения
Вы не можете удалять свои сообщения
Вы не можете голосовать в опросах
Вы не можете прикреплять файлы к сообщениям
Вы не можете скачивать файлы